Ссылка на приватное зеркало нашего сайта всего за 1$. Внимание количество ограничено!!!

2 сезон

iTunes

iTunes

1

iTunes

iTunes

iTunes

WEBRip

iTunes

30
pack

Вам бонус

ВАЖНО

!!Акция!!

Alien_RageХит недели

RePack

Horizon Zero Dawn

ИГРА 18+

pack

RePack

jed

!!Акция!!

Alien_Rage

RePack

fifa19

RePack

Assassins Creed: Odyssey

RePack

NEED FOR SPEED™ PAYBACK

4 сезон

9 сезон

Бесстыжие 9 сезон

Все сериалы

все сериалы на PB.wtf

RePack

FAR CRY 5
  

Чудо в Крыму (Виталий Павлов) [2015, Россия, Мелодрама, HDTV 1080i] piratbit.pw

Чудо в Крыму через торрент piratbit.pw

Размер: 5.16 GB | Добавлен: 3 года 8 мес. назад | Торрент скачан:56 раз
Скачать  

07-01-2017 01:41 Чудо в Крыму Скачать торрент  

Чудо в Крыму


  • Год выпуска: 2015
  • Страна: Россия
  • Жанр: Мелодрама
  • Продолжительность: 01:28:52
  • Перевод: Не требуется [Русский]
  • Режиссер: Виталий Павлов
  • В ролях:

    Михаил Пореченков, Ирина Гринёва, Михаил Дитковский


  • Несостоявшийся провинциальный актер Дима работает в Симферополе личным водителем директора агентства недвижимости, а для души каждый год выступает в роли Деда Мороза. В канун Нового года он знакомится с женщиной своих грез — известной актрисой из Москвы Марией Устиновой. После нескольких совместно пережитых приключений столичная штучка проникается симпатией к доброму и отзывчивому шоферу. Каждому известно, что в таких романистических историях важен первый шаг. Тем более, если он сделан в новогоднюю ночь…
  • Рейтинг:



  • Качество: HDTV 1080i
  • Формат: :MPEG-TS
  • Видео кодек: AVC
  • Аудио кодек: MPEG-1 Audio layer 2
  • Видео: 1920x1080 (16:9), 7715 kbps, 25 fps, Interlaced (Top Field First), 0,149 bpp
  • Аудио: русский / 2.0 / 48 kHz / 192 kbps / ||

    General
    ID : 1 (0x1)
    Complete name : H:\Chudo.v.Krymu.2015.HDTV.(1080i).Nikolspup.ts
    Format : MPEG-TS
    File size : 5.16 GiB
    Duration : 1 h 28 min
    Overall bit rate mode : Variable
    Overall bit rate : 8 320 kb/s

    Video
    ID : 67 (0x43)
    Menu ID : 1 (0x1)
    Format : AVC
    Format/Info : Advanced Video Codec
    Format profile : High@L4
    Format settings, CABAC : Yes
    Format settings, ReFrames : 4 frames
    Codec ID : 27
    Duration : 1 h 28 min
    Bit rate : 7 715 kb/s
    Width : 1 920 pixels
    Height : 1 080 pixels
    Display aspect ratio : 16:9
    Frame rate : 25.000 FPS
    Standard : Component
    Color space : YUV
    Chroma subsampling : 4:2:0
    Bit depth : 8 bits
    Scan type : Interlaced
    Scan type, store method : Separated fields
    Scan order : Top Field First
    Bits/(Pixel*Frame) : 0.149
    Stream size : 4.79 GiB (93%)
    Color range : Limited
    Color primaries : BT.709
    Transfer characteristics : BT.709
    Matrix coefficients : BT.709

    Audio
    ID : 68 (0x44)
    Menu ID : 1 (0x1)
    Format : MPEG Audio
    Format version : Version 1
    Format profile : Layer 2
    Codec ID : 3
    Duration : 1 h 28 min
    Bit rate mode : Constant
    Bit rate : 192 kb/s
    Channel(s) : 2 channels
    Sampling rate : 48.0 kHz
    Compression mode : Lossy
    Delay relative to video : -40 ms
    Stream size : 122 MiB (2%)
    Language : Russian

    Скриншоты:



    piratbit.pw



  • Скачать Чудо в Крыму через торрент http://i90.fastpic.ru/big/2017/0107/78/6c22b344e48da0558fc6f4fbebe67d78.jpg Скачать фильм Чудо в Крыму через торрент бесплантно в хорошем качестве qw.png Несостоявшийся провинциальный актер Дима работает в Симферополе личным водителем директора агентства недвижимости, а для души ... 4.4 10 10
    Торрент: Зарегистрирован [2017-01-07 01:41] · скачан: 56 раз
    Статус: √ проверено
    Размер: 5.16 GB
    Как cкачать? Как скачать Чудо в Крыму через торрент | qTorrent

    % Раздел Тема Автор DL S | L
    Наши новые фильмы 2015 [ 1.36 GB ] Чудо в Крыму [2015 Россия Мело HDTVRip] GEKADOL Скачать
    1 | 0

    28-11-2019 20:33  

    Отключить всю рекламу на сайте

    07-01-2017 13:48 Чудо в Крыму Скачать торрент  

    бойкот такому гребаному стыду !!!!!!!piratbit.pw



    08-01-2017 17:44 Чудо в Крыму Скачать торрент  

    Мурло в Крымуpiratbit.pw



    08-01-2017 18:35 Чудо в Крыму Скачать торрент  

    ztrstas1973 писал(а):

    Мурло в Крыму

    В точку!!!))))piratbit.pw



    09-01-2017 06:35 Чудо в Крыму Скачать торрент  

    козлиха с крыма..........как актриса уже страя при страя КОБЫЛА кщё блондинка ...... piratbit.pw



    09-01-2017 17:55 Чудо в Крыму Скачать торрент  

    такой рейтинг как и актерpiratbit.pw



    09-01-2017 17:55 Чудо в Крыму Скачать торрент  

    такой рейтинг как и актерpiratbit.pw



    10-01-2017 11:33 Чудо в Крыму Скачать торрент  

    когда видишь логотип НтВ,можно смело проходить мимо.Даже не заморачиваться на попытку просмотра.piratbit.pw



      Дорогой пользователь! Огромная просьба, поблагодарите релизера, оцените раздачу и оставьте свои комментарий, если Вы скачали Чудо в Крыму через торрент бесплатно! Внесите свою лепту в развитие PiratBit!
      Комментировать посты могут только пользователи прошедшие не сложную регистрацию
      Показать сообщения:    

      Чудо в Крыму через торрент
      Скачать бесплатно Чудо в Крыму
      Чудо в Крыму скачать торрент
      Чудо в Крыму смотреть онлайн
      Cкачать фильм Чудо в Крыму бесплатно
      Чудо в Крыму скачать торрент в хорошем качестве
      Чудо в Крыму смотреть онлайн бесплатно в хорошем качестве


      Вы не можете начинать темы
      Вы не можете отвечать на сообщения
      Вы не можете редактировать свои сообщения
      Вы не можете удалять свои сообщения
      Вы не можете голосовать в опросах
      Вы не можете прикреплять файлы к сообщениям
      Вы можете скачивать файлы