Ссылка на приватное зеркало нашего сайта всего за 1$. Внимание количество ограничено!!!

2 сезон

iTunes

iTunes

1

iTunes

iTunes

iTunes

WEBRip

iTunes

30
pack

Новость дня

ВАЖНО

!!Акция!!

Alien_RageХит недели

RePack

Horizon Zero Dawn

ИГРА 18+

pack

RePack

jed

!!Акция!!

Alien_Rage

RePack

fifa19

RePack

Assassins Creed: Odyssey

RePack

NEED FOR SPEED™ PAYBACK

4 сезон

9 сезон

Бесстыжие 9 сезон

Все сериалы

все сериалы на PB.wtf

RePack

FAR CRY 5
  

Млечный путь (Анна Матисон) [2015, комедия, WEB-DL 1080p] Не требуется [Русский] piratbit.pw

Млечный путь через торрент piratbit.pw

Размер: 2.71 GB | Добавлен: 3 года 8 мес. назад | Торрент скачан:366 раз
Скачать  

05-01-2017 23:49 Млечный путь Скачать торрент  

Млечный путь


Год выпуска: 2015
Страна: Россия
Жанр: комедия
Продолжительность: 01:29:44
Перевод: Не требуется [Русский]
Режиссер: Анна Матисон
В ролях:

Сергей Безруков (Андрей), Марина Александрова (Надя), Владимир Меньшов, Анастасия Безрукова (Лиза), Петр Терещенко, Владимир Войтюк (Дима), Валентин Гафт, Денис Мацуев, Дмитрий Соколов, Бэлик Дамбаев (Коля), Максим Керин (сотрудник ДПС), Сергей Соцердотский (Саня)
Описание:
В браке Андрея и Нади что-то сломалось. Он отправляется жить в Москву, она с детьми остается в Иркутске. В канун Нового Года семья снова собирается вместе, но, похоже, в последний раз. Слово «развод» звучит вполне определенно. 1-го января, казалось бы, всё уже решено, но целая цепочка событий, - смешных, грустных, иногда даже странных и необъяснимых - будто удерживает семью от неправильного шага. Все они потеряются и найдут друг друга в эту волшебную ночь на острове Ольхон и поймут, что прошлые обиды легко забыть, а в жизни есть нечто куда более важное.

Качество: WEB-DL 1080p
Формат: MKV
Видео: AVC, 1920x800 (2.40:1), 3856 kbps, 25 fps, 0,100 bpp
Аудио: AC3 / 2.0 / 44 kHz / 384 kbps /

General
Unique ID : 229146320794656373448249009506402658216 (0xAC63F9E0CD5C713B6D3E0C2E14F367A8)
Complete name : E:\Mel4ioH11.Put.2015.O.WEB-DL.1080p.mkv
Format : Matroska
Format version : Version 4 / Version 2
File size : 2.71 GiB
Duration : 1 h 29 min
Overall bit rate mode : Variable
Overall bit rate : 4 327 kb/s
Writing application : Lavf57.25.100
Writing library : Lavf57.25.100 / Lavf57.25.100

Video
ID : 1
Format : AVC
Format/Info : Advanced Video Codec
Format profile : High@L4
Format settings, CABAC : Yes
Format settings, ReFrames : 3 frames
Codec ID : V_MPEG4/ISO/AVC
Duration : 1 h 29 min
Bit rate mode : Variable
Bit rate : 3 857 kb/s
Maximum bit rate : 4 999 kb/s
Width : 1 920 pixels
Original width : 1 912 pixels
Height : 800 pixels
Display aspect ratio : 2.40:1
Original display aspect ratio : 2.40:1
Frame rate mode : Constant
Frame rate : 25.000 FPS
Color space : YUV
Chroma subsampling : 4:2:0
Bit depth : 8 bits
Scan type : Progressive
Bits/(Pixel*Frame) : 0.100
Stream size : 2.42 GiB (89%)
Default : Yes
Forced : No
DURATION : 01:29:44.840000000

Audio
ID : 2
Format : AC-3
Format/Info : Audio Coding 3
Mode extension : CM (complete main)
Format settings, Endianness : Big
Codec ID : A_AC3
Duration : 1 h 29 min
Bit rate mode : Constant
Bit rate : 384 kb/s
Channel(s) : 2 channels
Channel positions : Front: L R
Sampling rate : 44.1 kHz
Frame rate : 28.711 FPS (1536 spf)
Compression mode : Lossy
Stream size : 246 MiB (9%)
Language : unknown
Default : Yes
Forced : No
DURATION : 01:29:44.847000000

© Оформление by White Smoke piratbit.pw



Скачать Млечный путь через торрент http://i2.imageban.ru/out/2017/01/06/d89cd88b0ab1304c5a05f371e7631971.jpg Скачать фильм Млечный путь через торрент бесплантно в хорошем качестве Описание: В браке Андрея и Нади что-то сломалось. Он отправляется жить в Москву, она с детьми остается в Иркутске. В канун Нового Года ... 7.5 10 11
Торрент: Зарегистрирован [2017-01-05 23:49] · скачан: 366 раз
Статус: √ проверено
Размер: 2.71 GB
Как cкачать? Как скачать Млечный путь через торрент | qTorrent

% Раздел Тема Автор DL S | L
Кино СССР [ 1.09 GB ] Млечный путь [1959 СССР SATRip-AVC от AVP Studio] AVP Studio Скачать
1 | 0
Кино СССР [ 1.09 GB ] Млечный путь [1959 СССР SATRip от AVP Studio] AVP Studio Скачать
1 | 0
Фильмы 2016 [DVDrip, WEB-DLRip, HDrip] (DUB, MVO) [ 1.37 GB ] По млечному пути / On the Milky Road [2016 экранизация WEB-DLRip ] oleg8 Скачать
1 | 0
Фильмы (WEB-DL 720p, 1080p) [ 4.2 GB ] По млечному пути / On the Milky Road [2016 WEB-DL 1080p] - -Lexx- Скачать
1 | 0
Фильмы 2016 [DVDrip, WEB-DLRip, HDrip] (DUB, MVO) [ 2.18 GB ] По млечному пути / On the Milky Road [2016 WEB-DLRip ""] coc900 Скачать
1 | 0
Наши новые фильмы 2015 [ 1.37 GB ] Млечный путь [2015 HDTVRip] oleg8 Скачать
1 | 0
Кино СССР [ 744 MB ] Свидание на млечном пути [1985 СССР военный SATRip-AVC от AVP Studio] AVP Studio Скачать
1 | 0

28-11-2019 20:33  

Отключить всю рекламу на сайте

    Дорогой пользователь! Огромная просьба, поблагодарите релизера, оцените раздачу и оставьте свои комментарий, если Вы скачали Млечный путь через торрент бесплатно! Внесите свою лепту в развитие PiratBit!
    Комментировать посты могут только пользователи прошедшие не сложную регистрацию
    Показать сообщения:    

    Млечный путь через торрент
    Скачать бесплатно Млечный путь
    Млечный путь скачать торрент
    Млечный путь смотреть онлайн
    Cкачать фильм Млечный путь бесплатно
    Млечный путь скачать торрент в хорошем качестве
    Млечный путь смотреть онлайн бесплатно в хорошем качестве


    Вы не можете начинать темы
    Вы не можете отвечать на сообщения
    Вы не можете редактировать свои сообщения
    Вы не можете удалять свои сообщения
    Вы не можете голосовать в опросах
    Вы не можете прикреплять файлы к сообщениям
    Вы можете скачивать файлы