1 сезон

1 сезон

iTunes

1

КиноПоиск HD

Кинопоиск HD

iTunes

13

1 сезон

RePack

30

Ultimate

ВАЖНО

ИГРА 18+

pack

RePack

MK11
pack

Легкие деньги

RePack

jed

RePack

fifa19

RePack

RDR2

RePack

NEED FOR SPEED™ PAYBACK

4 сезон

9 сезон

Бесстыжие 9 сезон

Все сериалы

все сериалы на PB.wtf

RePack

FAR CRY 5
  
Magnet ссылка

Озеро Бодом / Bodom (Танели Мустонен) [2016 г., Ужасы, BDRip, Авторский одноголосый (А. Дольский)] piratbit.pw

Озеро Бодом через торрент piratbit.pw

Размер: 1.38 GB | Добавлен: 4 года 3 мес. назад | Торрент скачан:99 раз
Скачать  

03-01-2017 06:57 Озеро Бодом Скачать торрент  

Озеро Бодом / Bodom
Год выпуска: 2016
Страна: Финляндия, Эстония
Жанр: Ужасы
Продолжительность: 01:24:18
Перевод: Авторский одноголосый (А. Дольский)
Субтитры: отсутствуют.

Режиссер: Танели Мустонен

Бюджет: €1 100 000

rating

В ролях: Нелли Хирст-Ги, Сантери Хелинхеймо Мянтиля, Томми Корпела, Мимоза Виллиамо, Микаэль Габриэль, Илка Хайсканен, Яркко Ниеми, Иирис Канккунен, Пирьё Мойланен, Вилле Саксела

Описание: Фильм основан на реальных событиях, произошедших на берегу озера Бодом: в ночь на 4 июня 1960 года четверо подростков пошли в поход к озеру Бодом, где неизвестный преступник убил троих из них ножом и ранил четвёртого. Выживший, Нильс Вильгельм Густавсон, после случившегося жил нормальной жизнью, пока в 2004 году его не обвинили в убийстве своих друзей. Спустя годы четверо подростков решили реконструировать эти события.

Качество: BDRip
Формат: AVI
Видео кодек: XviD
Аудио кодек: AC3
Видео: XviD, 1884 Kbps, 720x304, 24.000 кадр/с
Аудио: AC3, 6 ch, 448 Kbps,48.0 KHz



General
Complete name : H:\релизы.торрентфайл\Bodom.2016.BDRip-ylnian.avi
Format : AVI
Format/Info : Audio Video Interleave
File size : 1.38 GiB
Duration : 1h 24mn
Overall bit rate : 2 342 Kbps
Movie name : Bodom - BDRip - ylnian
Writing application : VirtualDubMod 1.5.10.2 (build 2540/release)
Writing library : VirtualDubMod build 2540/release

Video
ID : 0
Format : MPEG-4 Visual
Format profile : Advanced Simple@L5
Format settings, BVOP : 1
Format settings, QPel : No
Format settings, GMC : No warppoints
Format settings, Matrix : Default (MPEG)
Codec ID : XVID
Codec ID/Hint : XviD
Duration : 1h 24mn
Bit rate : 1 884 Kbps
Width : 720 pixels
Height : 304 pixels
Display aspect ratio : 2.35:1
Frame rate : 24.000 fps
Color space : YUV
Chroma subsampling : 4:2:0
Bit depth : 8 bits
Scan type : Progressive
Compression mode : Lossy
Bits/(Pixel*Frame) : 0.359
Stream size : 1.11 GiB (80%)
Writing library : XviD 67

Audio
ID : 1
Format : AC-3
Format/Info : Audio Coding 3
Mode extension : CM (complete main)
Format settings, Endianness : Big
Codec ID : 2000
Duration : 1h 24mn
Bit rate mode : Constant
Bit rate : 448 Kbps
Channel(s) : 6 channels
Channel positions : Front: L C R, Side: L R, LFE
Sampling rate : 48.0 KHz
Bit depth : 16 bits
Compression mode : Lossy
Stream size : 270 MiB (19%)
Alignment : Split accross interleaves
Interleave, duration : 42 ms (1.00 video frame)
Interleave, preload duration : 500 ms
Title : RUS - AVO - Dolsky

piratbit.pw



Скачать Озеро Бодом через торрент https://pic1.kartinco.top/images/11/46dim.jpg Скачать фильм Озеро Бодом через торрент бесплантно в хорошем качестве Описание: Фильм основан на реальных событиях, произошедших на берегу озера Бодом: в ночь на 4 июня 1960 года четверо подростков пошли в ... 8.7 10 7
Торрент: Зарегистрирован [2017-01-03 06:57] · скачан: 99 раз
Статус: √ проверено
Размер: 1.38 GB
Как cкачать? Как скачать Озеро Бодом через торрент | UTorrent

% Раздел Тема Автор DL S | L
Фильмы с авторской озвучкой [ 1.46 GB ] Озеро Бодом / Bodom [2016 BDRip] Авторский [А. Дольский] Twi7ter Скачать
1 | 0

28-11-2019 20:33  

Отключить всю рекламу на сайте

    Дорогой пользователь! Огромная просьба, поблагодарите релизера, оцените раздачу и оставьте свои комментарий, если Вы скачали Озеро Бодом через торрент бесплатно! Внесите свою лепту в развитие PiratBit!
    Комментировать посты могут только пользователи прошедшие не сложную регистрацию
    Показать сообщения:    

    Озеро Бодом через торрент
    Скачать бесплатно Озеро Бодом
    Озеро Бодом скачать торрент
    Озеро Бодом смотреть онлайн
    Cкачать фильм Озеро Бодом бесплатно
    Озеро Бодом скачать торрент в хорошем качестве
    Озеро Бодом смотреть онлайн бесплатно в хорошем качестве


    Вы не можете начинать темы
    Вы не можете отвечать на сообщения
    Вы не можете редактировать свои сообщения
    Вы не можете удалять свои сообщения
    Вы не можете голосовать в опросах
    Вы не можете прикреплять файлы к сообщениям
    Вы можете скачивать файлы