1 сезон

3 сезон

iTunes

1

iTunes

DUB Netflix

iTunes

13

1 сезон

RePack

30

Deluxe

pack

Легкие деньги

ВАЖНО

ИГРА 18+

pack

RePack

MK11

RePack

jed

RePack

fifa19

RePack

RDR2

RePack

NEED FOR SPEED™ PAYBACK

4 сезон

9 сезон

Бесстыжие 9 сезон

Все сериалы

все сериалы на PB.wtf

RePack

FAR CRY 5

Anonymous, доброе утро, мы не успеваем до 1 числа собрать деньги на оплату серверов, помогите нам пожалуйста в это трудное время. В качестве благодарности мы отключим Вам всю рекламу на сайте (укажите свой ник в строку Ваше имя)!

×
  
Magnet ссылка

Летнее время / L'heure d'été (Оливье Ассайас) [2008 г., драма, семейный, BDRip-AVC] MVO piratbit.pw

Летнее время через торрент piratbit.pw

Размер: 2.74 GB | Добавлен: 4 года 5 мес. назад | Торрент скачан:1 раз
Скачать  

26-12-2016 06:34 Летнее время Скачать торрент  

Летнее время / L'heure d'été
Год выпуска: 2008
Страна: Франция
Жанр: драма, семейный
Продолжительность: 01:43:05
Перевод: Профессиональный (многоголосый)
Тип релиза: The Criterion Collection
Субтитры: Русские, английские

Режиссер: Оливье Ассайас

rating

В ролях: Жюльетт Бинош, Шарль Берлинг, Жереми Ренье, Эдит Скоб, Доминик Реймон, Валери Боннетон, Изабель Садоян, Кайл Иствуд, Элис де Ланкесэ, Эмиль Берлинг

Описание: На торжество в честь 75-летия Элен в её загородный дом приезжают сыновья Фредерик и Жереми, и дочь Эдриэн. Элен живет исключительно памятью о своем дяде, известном художнике, и думает о том, что все истории и воспоминания о нём уйдут вместе с ней. Она превращает дом в музей, который оживает только дважды в год, когда приезжают дети.

Качество: BDRip-AVC
Формат: MKV
Видео кодек: x264
Аудио кодек: AC3
Видео: MPEG-4 AVC, 3160 Кбит/с, 1024x556, 23.976 кадр/с
Аудио#1: AC3, 2 ch, 192 Кбит/с, 48 kHz | Русский
Аудио#2: AC3, 6 ch, 448 Кбит/с, 48 kHz | Французский
Релиз от: Koenig
Общее
Уникальный идентификатор : 173817085381407946849499701156659879764 (0x82C3F3F511D6EFFE8F890A7E3D745F54)
Полное имя : Summer.Hours.2008.Criterion.Collection.BDRip-AVC.mkv
Формат : Matroska
Версия формата : Version 4 / Version 2
Размер файла : 2,74 Гбайт
Продолжительность : 1 ч. 43 м.
Общий поток : 3802 Кбит/сек
Название фильма : Summer Hours by Koenig
Дата кодирования : UTC 2016-12-26 05:03:56
Программа кодирования : mkvmerge v9.2.0 ('Photograph') 32bit
Библиотека кодирования : libebml v1.3.3 + libmatroska v1.4.4
Обложка : Yes
Attachments : cover.jpg

Видео
Идентификатор : 1
Формат : AVC
Формат/Информация : Advanced Video Codec
Профиль формата : High@L4.1
Параметр CABAC формата : Да
Параметр ReFrames формата : 11 кадров
Идентификатор кодека : V_MPEG4/ISO/AVC
Продолжительность : 1 ч. 43 м.
Битрейт : 3160 Кбит/сек
Ширина : 1024 пикселя
Высота : 556 пикселей
Соотношение сторон : 1,85:1
Режим частоты кадров : Постоянный
Частота кадров : 23,976 (24000/1001) кадра/сек
Цветовое пространство : YUV
Субдискретизация насыщенности : 4:2:0
Битовая глубина : 8 бит
Тип развёртки : Прогрессивная
Бит/(Пиксели*Кадры) : 0.231
Размер потока : 2,28 Гбайт (83%)
Заголовок : Summer Hours
Библиотека кодирования : x264 core 148 r2692 64f4e24
Настройки программы : cabac=1 / ref=11 / deblock=1:-3:-3 / analyse=0x3:0x133 / me=umh / subme=11 / psy=1 / psy_rd=1.00:0.00 / mixed_ref=1 / me_range=32 / chroma_me=1 / trellis=2 / 8x8dct=1 / cqm=0 / deadzone=21,11 / fast_pskip=1 / chroma_qp_offset=-2 / threads=3 / lookahead_threads=1 / sliced_threads=0 / nr=0 / decimate=1 / interlaced=0 / bluray_compat=0 / constrained_intra=0 / bframes=11 / b_pyramid=2 / b_adapt=2 / b_bias=0 / direct=3 / weightb=1 / open_gop=0 / weightp=2 / keyint=240 / keyint_min=23 / scenecut=40 / intra_refresh=0 / rc_lookahead=50 / rc=2pass / mbtree=1 / bitrate=3160 / ratetol=1.0 / qcomp=0.60 / qpmin=0 / qpmax=51 / qpstep=4 / cplxblur=20.0 / qblur=0.5 / vbv_maxrate=50000 / vbv_bufsize=62500 / nal_hrd=none / filler=0 / ip_ratio=1.40 / aq=1:1.00
Default : Да
Forced : Нет

Аудио #1
Идентификатор : 2
Формат : AC-3
Формат/Информация : Audio Coding 3
Расширение режима : CM (complete main)
Параметр Endianness формата : Big
Идентификатор кодека : A_AC3
Продолжительность : 1 ч. 43 м.
Вид битрейта : Постоянный
Битрейт : 192 Кбит/сек
Каналы : 2 канала
Расположение каналов : Front: L R
Частота : 48,0 КГц
Частота кадров : 31,250 кадров/сек (1536 spf)
Битовая глубина : 16 бит
Метод сжатия : С потерями
Размер потока : 142 Мбайт (5%)
Заголовок : MVO
Язык : Russian
Default : Да
Forced : Нет

Аудио #2
Идентификатор : 3
Формат : AC-3
Формат/Информация : Audio Coding 3
Расширение режима : CM (complete main)
Параметр Endianness формата : Big
Идентификатор кодека : A_AC3
Продолжительность : 1 ч. 43 м.
Вид битрейта : Постоянный
Битрейт : 448 Кбит/сек
Каналы : 6 каналов
Расположение каналов : Front: L C R, Side: L R, LFE
Частота : 48,0 КГц
Частота кадров : 31,250 кадров/сек (1536 spf)
Битовая глубина : 16 бит
Метод сжатия : С потерями
Размер потока : 330 Мбайт (12%)
Язык : French
Default : Нет
Forced : Нет

Текст #1
Идентификатор : 4
Формат : UTF-8
Идентификатор кодека : S_TEXT/UTF8
Идентификатор кодека/Информация : UTF-8 Plain Text
Продолжительность : 1 ч. 37 м.
Битрейт : 105 бит/сек
Count of elements : 1379
Размер потока : 75,4 Кбайт (0%)
Язык : Russian
Default : Да
Forced : Нет

Текст #2
Идентификатор : 5
Формат : UTF-8
Идентификатор кодека : S_TEXT/UTF8
Идентификатор кодека/Информация : UTF-8 Plain Text
Продолжительность : 1 ч. 41 м.
Битрейт : 51 бит/сек
Count of elements : 1280
Размер потока : 38,3 Кбайт (0%)
Язык : English
Default : Нет
Forced : Нет

Меню
00:24:45.984 : en:Chapter01
00:28:44.556 : en:Chapter02
00:33:59.370 : en:Chapter03
00:40:59.456 : en:Chapter04
00:52:33.817 : en:Chapter05
01:00:56.486 : en:Chapter06
01:10:30.059 : en:Chapter07
01:14:42.644 : en:Chapter08
01:16:34.881 : en:Chapter09
01:19:26.595 : en:Chapter10
01:22:28.693 : en:Chapter11
01:29:29.155 : en:Chapter12
01:32:59.573 : en:Chapter13
01:43:04.970 : en:Chapter14

piratbit.pw



Скачать Летнее время через торрент https://pic1.kartinco.top/images/11/kn2kh.jpg Скачать фильм Летнее время через торрент бесплантно в хорошем качестве Описание: На торжество в честь 75-летия Элен в её загородный дом приезжают сыновья Фредерик и Жереми, и дочь Эдриэн. Элен живет ... 10 10 2
Info! Золотая раздача, скачанное не засчитывается.
Торрент: Зарегистрирован [2016-12-26 06:34] · скачан: 1 раз
Статус: √ проверено
Размер: 2.74 GB
Как cкачать? Как скачать Летнее время через торрент | UTorrent

28-11-2019 20:33  

Отключить всю рекламу на сайте

    Дорогой пользователь! Огромная просьба, поблагодарите релизера, оцените раздачу и оставьте свои комментарий, если Вы скачали Летнее время через торрент бесплатно! Внесите свою лепту в развитие PiratBit!
    Комментировать посты могут только пользователи прошедшие не сложную регистрацию
    Показать сообщения:    

    Летнее время через торрент
    Скачать бесплатно Летнее время
    Летнее время скачать торрент
    Летнее время смотреть онлайн
    Cкачать фильм Летнее время бесплатно
    Летнее время скачать торрент в хорошем качестве
    Летнее время смотреть онлайн бесплатно в хорошем качестве


    Вы не можете начинать темы
    Вы не можете отвечать на сообщения
    Вы не можете редактировать свои сообщения
    Вы не можете удалять свои сообщения
    Вы не можете голосовать в опросах
    Вы не можете прикреплять файлы к сообщениям
    Вы можете скачивать файлы