Marvel's Avengers Deluxe Edition (супер цена) 159р. Внимание количество ограничено!!!

2 сезон

iTunes

iTunes

1

iTunes

iTunes

iTunes

WEBRip

iTunes

30
pack

Новость дня

ВАЖНО

!!Акция!!

Alien_RageХит недели

RePack

Horizon Zero Dawn

ИГРА 18+

pack

RePack

jed

!!Акция!!

Alien_Rage

RePack

fifa19

RePack

Assassins Creed: Odyssey

RePack

NEED FOR SPEED™ PAYBACK

4 сезон

9 сезон

Бесстыжие 9 сезон

Все сериалы

все сериалы на PB.wtf

RePack

FAR CRY 5
  

Источник (Надежда Витальская) [2016, драма, WEB-DL 1080p] оригинал [iTunes] piratbit.pw

Источник через торрент piratbit.pw

Размер: 3.15 GB | Добавлен: 3 года 8 мес. назад | Торрент скачан:86 раз
Скачать  

24-12-2016 21:53 Источник Скачать торрент  

Источник
««Ты - главный герой»»


Год выпуска: 2016
Страна: Россия
Жанр: драма
Продолжительность: 01:31:31
Перевод: оригинал [iTunes]
Режиссер: Надежда Витальская
В ролях:

Иван Янковский (Иван), Валентина Колева (Алёна), Роза Хайруллина, Александр Рапопорт (Август Лирник, экскурсовод, хранитель музея), Павел Делонг, Светлана Нарышкина, Денис Курочка, Максим Заусалин, Игорь Черкашин, Яна Кошкина, Олег Граф (Иннокентий)
Описание:
Иван, типичный житель современного мегаполиса, по работе приезжает в провинциальный город. По плану здесь на месте лесного массива будет построен туристический комплекс. Осматривая место для строительства в лесу, Иван встречает юную красавицу Алёну и влюбляется в неё. Алёна не похожа на тех девушек, с которыми Иван встречался раньше, он околдован её свежестью и чистотой. Вспыхнувшему чувству молодых людей мешает всё: и власти города, и старший брат Ивана, и обстоятельства, складывающиеся не в их пользу. А самое главное то, что они абсолютно из разных миров. Смогут ли они преодолеть все препятствия и быть вместе, ведь они такие разные?...

Качество: WEB-DL 1080p
Формат: MKV
Видео: AVC, 1920x804 (2.40:1), 4534 kbps, 24 fps, 0,122 bpp
Аудио: русский / AC3 / 5.1 / 48 kHz / 384 kbps / ||

General
Unique ID : 218323493758451579956796841650674413278 (0xA43F934EAD49179AAF957902DAFF2EDE)
Complete name : E:\IstoCHniK.2O16.O.WEB-DL.1080p.mkv
Format : Matroska
Format version : Version 2
File size : 3.15 GiB
Duration : 1 h 31 min
Overall bit rate : 4 921 kb/s
Encoded date : UTC 2016-12-24 19:30:53
Writing application : mkvmerge v8.3.0 ('Over the Horizon') 64bit
Writing library : libebml v1.3.1 + libmatroska v1.4.2

Video
ID : 1
Format : AVC
Format/Info : Advanced Video Codec
Format profile : High@L4
Format settings, CABAC : Yes
Format settings, ReFrames : 5 frames
Codec ID : V_MPEG4/ISO/AVC
Duration : 1 h 31 min
Bit rate : 4 535 kb/s
Width : 1 920 pixels
Height : 804 pixels
Display aspect ratio : 2.40:1
Frame rate mode : Constant
Frame rate : 24.000 FPS
Color space : YUV
Chroma subsampling : 4:2:0
Bit depth : 8 bits
Scan type : Progressive
Bits/(Pixel*Frame) : 0.122
Stream size : 2.90 GiB (92%)
Language : English
Default : Yes
Forced : No
Color range : Limited
Color primaries : BT.709
Transfer characteristics : BT.709
Matrix coefficients : BT.709

Audio
ID : 2
Format : AC-3
Format/Info : Audio Coding 3
Mode extension : CM (complete main)
Format settings, Endianness : Big
Codec ID : A_AC3
Duration : 1 h 31 min
Bit rate mode : Constant
Bit rate : 384 kb/s
Channel(s) : 6 channels
Channel positions : Front: L C R, Side: L R, LFE
Sampling rate : 48.0 kHz
Frame rate : 31.250 FPS (1536 spf)
Compression mode : Lossy
Stream size : 251 MiB (8%)
Language : Russian
Default : Yes
Forced : No

Menu
00:00:00.000 : en:Глава 1
00:07:17.625 : en:Глава 2
00:14:08.958 : en:Глава 3
00:21:29.583 : en:Глава 4
00:28:01.041 : en:Глава 5
00:35:05.166 : en:Глава 6
00:41:49.999 : en:Глава 7
00:48:39.999 : en:Глава 8
00:55:11.457 : en:Глава 9
01:01:44.457 : en:Глава 10
01:09:02.915 : en:Глава 11
01:16:20.915 : en:Глава 12
01:24:08.123 : en:Глава 13

© Оформление by White Smoke piratbit.pw



Скачать Источник через торрент http://i4.imageban.ru/out/2016/12/25/51ec9744e3b28b478178a25b0c9c559d.jpg Скачать фильм Источник через торрент бесплантно в хорошем качестве Описание: Иван, ичный житель современного мегаполиса, по работе приезжает в провинциальный город. По плану здесь на месте лесного ... 10 10 5
Торрент: Зарегистрирован [2016-12-24 21:53] · скачан: 86 раз
Статус: √ проверено
Размер: 3.15 GB
Как cкачать? Как скачать Источник через торрент | qTorrent

% Раздел Тема Автор DL S | L
T Фильмы (мультфильмы) cо спонсором показа (Новинки AVI/MKV) [ 1.36 GB ] Источник теней / The Source of Shadows [2019 WEB-DLRip] MVO [@MUZOBOZ@] bober100 Скачать
1 | 0
T Фильмы (мультфильмы) cо спонсором показа (Новинки AVI/MKV) [ 4.19 GB ] Источник теней / The Source of Shadows [2019 WEB-DL 1080p] MVO [@MUZOBOZ@] bober100 Скачать
3 | 0
T Фильмы (мультфильмы) cо спонсором показа (Новинки AVI/MKV) [ 3.21 GB ] Источник теней / The Source of Shadows [2019 WEB-DL 720p] MVO [@MUZOBOZ@] bober100 Скачать
1 | 0
Фильмы [HD 720p, 1080p] (Хороший звук DUB, MVO) [ 8.91 GB ] Девичий источник / Jungfrukällan [1960 BDRip 1080p by msltel] MVO 2 x AVO msltel Скачать
1 | 0
Фильмы [HD 720p, 1080p] (Хороший звук DUB, MVO) [ 3 GB ] Девичий источник / Jungfrukällan [1960 BDRip 720p by msltel] MVO 2 x AVO msltel Скачать
1 | 0
Документальные фильмы и телепередачи [ 1.31 GB ] Источник русской силы [2018 Документальный расследование SATRip] Armstrong Скачать
1 | 0
Наши новые фильмы 2016 [ 1.46 GB ] Источник [2016 WEB-DLRip] killermax2013 Скачать
1 | 0

28-11-2019 20:33  

Отключить всю рекламу на сайте

    Дорогой пользователь! Огромная просьба, поблагодарите релизера, оцените раздачу и оставьте свои комментарий, если Вы скачали Источник через торрент бесплатно! Внесите свою лепту в развитие PiratBit!
    Комментировать посты могут только пользователи прошедшие не сложную регистрацию
    Показать сообщения:    

    Источник через торрент
    Скачать бесплатно Источник
    Источник скачать торрент
    Источник смотреть онлайн
    Cкачать фильм Источник бесплатно
    Источник скачать торрент в хорошем качестве
    Источник смотреть онлайн бесплатно в хорошем качестве


    Вы не можете начинать темы
    Вы не можете отвечать на сообщения
    Вы не можете редактировать свои сообщения
    Вы не можете удалять свои сообщения
    Вы не можете голосовать в опросах
    Вы не можете прикреплять файлы к сообщениям
    Вы можете скачивать файлы