Ссылка на приватное зеркало нашего сайта всего за 1$. Внимание количество ограничено!!!

2 сезон

iTunes

iTunes

1

iTunes

iTunes

iTunes

WEBRip

iTunes

30
pack

Новость дня

ВАЖНО

!!Акция!!

Alien_RageХит недели

RePack

Horizon Zero Dawn

ИГРА 18+

pack

RePack

jed

!!Акция!!

Alien_Rage

RePack

fifa19

RePack

Assassins Creed: Odyssey

RePack

NEED FOR SPEED™ PAYBACK

4 сезон

9 сезон

Бесстыжие 9 сезон

Все сериалы

все сериалы на PB.wtf

RePack

FAR CRY 5
  

Неуловимые: Джекпот (Артем Аксененко) [2016, приключения, комедия, криминал, WEB-DL 1080p] piratbit.pw

Неуловимые: Джекпот через торрент piratbit.pw

Размер: 3.01 GB | Добавлен: 3 года 8 мес. назад | Торрент скачан:271 раз
Скачать  

24-12-2016 13:49 Неуловимые: Джекпот Скачать торрент  

Неуловимые: Джекпот

Год выпуска: 2016
Страна: Россия
Жанр: приключения, комедия, криминал
Продолжительность: 01:21:08
Перевод: Не требуется (Русский)
Режиссер: Артем Аксененко
В ролях:

Александра Бортич (Кира), Иван Шахназаров (Артём), Илья Маланин (Федя), Анвар Халилулаев (Женя), Алёна Ивченко (мать Киры), Маруся Климова, Анна Назарова (Кристи), Илья Шидловский (Лазарь), Владимир Зайцев (отец Лазаря), Никита Юранов (Никита)
Описание:
Продолжение остросюжетных приключенческих фильмов «Неуловимые» и «Неуловимые: Бангкок» от молодого популярного режиссера Артема Аксененко («Туман», «Чемпионы: Быстрее. Выше. Сильнее», «Мужчина с гарантией»). В основе сюжета фильма – новые головокружительные приключения четверки «Неуловимых». Кира, Федя, Артем и Женя продолжают борьбу с несправедливостью. Друзья полны сил и уверенности в себе, ведь им удалось наказать беспринципного олигарха Сергея Полянского и выбраться из опасной авантюры в Бангкоке. В Москве «Неуловимых» ожидает новое задание. К ним за помощью обращается девушка, брат которой пропал без вести. Друзья выясняют, что парень попал в плохую компанию и связан с подпольным казино, в котором «золотая молодежь» играет в карты на жизни простых ребят. Джекпот», главные роли в которой исполнили молодые российские актеры: Александра Бортич, Иван Шахнозаров и Илья Маланин. Смогут ли друзья вновь добиться справедливости и наказать опасных преступников?
Рейтинг:

Качество: WEB-DL 1080p
Формат: MKV
Видео: AVC, 1920x800 (2.40:1), 5006 kbps, 25 fps, 0,130 bpp
Аудио: русский / AC3 / 2.0 / 48 kHz / 192 kbps / |Оригинал|
Релиз от:
General
Unique ID : 223810677726897121946966696560490306435 (0xA8605E5D46BB076680EB2E377FC5DB83)
Complete name : E:\Neulovimye.Dzhekpot.2016.WEB-DL.(1080p).ExKinoRay.mkv
Format : Matroska
Format version : Version 2
File size : 3.01 GiB
Duration : 1 h 21 min
Overall bit rate : 5 304 kb/s
Movie name : Neulovimye.Dzhekpot.2016.WEB-DL.(1080p).ExKinoRay
Encoded date : UTC 2016-12-23 15:49:51
Writing application : mkvmerge v5.8.0 ('No Sleep / Pillow') built on Sep 2 2012 15:37:04
Writing library : libebml v1.2.3 + libmatroska v1.3.0

Video
ID : 1
Format : AVC
Format/Info : Advanced Video Codec
Format profile : High@L4
Format settings, CABAC : Yes
Format settings, ReFrames : 4 frames
Codec ID : V_MPEG4/ISO/AVC
Duration : 1 h 21 min
Bit rate : 5 007 kb/s
Width : 1 920 pixels
Height : 800 pixels
Display aspect ratio : 2.40:1
Frame rate mode : Constant
Frame rate : 25.000 FPS
Color space : YUV
Chroma subsampling : 4:2:0
Bit depth : 8 bits
Scan type : Progressive
Bits/(Pixel*Frame) : 0.130
Stream size : 2.84 GiB (94%)
Language : Russian
Default : Yes
Forced : Yes

Audio
ID : 2
Format : AC-3
Format/Info : Audio Coding 3
Mode extension : CM (complete main)
Format settings, Endianness : Big
Codec ID : A_AC3
Duration : 1 h 21 min
Bit rate mode : Constant
Bit rate : 192 kb/s
Channel(s) : 2 channels
Channel positions : Front: L R
Sampling rate : 48.0 kHz
Frame rate : 31.250 FPS (1536 spf)
Compression mode : Lossy
Stream size : 111 MiB (4%)
Language : Russian
Default : Yes
Forced : Yes
piratbit.pw



Скачать Неуловимые: Джекпот через торрент http://i2.imageban.ru/out/2016/12/24/2722395f97c94523924c3879f241b1ab.jpg Скачать фильм Неуловимые: Джекпот через торрент бесплантно в хорошем качестве Описание: Продолжение остросюжетных приключенческих фильмов «Неуловимые» и «Неуловимые: Бангкок» от молодого популярного режиссера Артема ... 8.2 10 10
Торрент: Зарегистрирован [2016-12-24 13:49] · скачан: 271 раз
Статус: T временная
Размер: 3.01 GB
Как cкачать? Как скачать Неуловимые: Джекпот через торрент | qTorrent

% Раздел Тема Автор DL S | L
T Наши новые фильмы 2016 [ 1.37 GB ] Неуловимые: Джекпот [2016 WEB-DLRip [Оригинал] smaster Скачать
1 | 0

28-11-2019 20:33  

Отключить всю рекламу на сайте

24-12-2016 19:07 Неуловимые: Джекпот Скачать торрент  

piratbit.pw



    Дорогой пользователь! Огромная просьба, поблагодарите релизера, оцените раздачу и оставьте свои комментарий, если Вы скачали Неуловимые: Джекпот через торрент бесплатно! Внесите свою лепту в развитие PiratBit!
    Комментировать посты могут только пользователи прошедшие не сложную регистрацию
    Показать сообщения:    

    Неуловимые: Джекпот через торрент
    Скачать бесплатно Неуловимые: Джекпот
    Неуловимые: Джекпот скачать торрент
    Неуловимые: Джекпот смотреть онлайн
    Cкачать фильм Неуловимые: Джекпот бесплатно
    Неуловимые: Джекпот скачать торрент в хорошем качестве
    Неуловимые: Джекпот смотреть онлайн бесплатно в хорошем качестве


    Вы не можете начинать темы
    Вы не можете отвечать на сообщения
    Вы не можете редактировать свои сообщения
    Вы не можете удалять свои сообщения
    Вы не можете голосовать в опросах
    Вы не можете прикреплять файлы к сообщениям
    Вы можете скачивать файлы