1 сезон

3 сезон

iTunes

1

iTunes

DUB Netflix

iTunes

13

1 сезон

RePack

30

Deluxe

pack

Легкие деньги

ВАЖНО

ИГРА 18+

pack

RePack

MK11

RePack

jed

RePack

fifa19

RePack

RDR2

RePack

NEED FOR SPEED™ PAYBACK

4 сезон

9 сезон

Бесстыжие 9 сезон

Все сериалы

все сериалы на PB.wtf

RePack

FAR CRY 5

Anonymous, доброй ночи, мы не успеваем до 1 числа собрать деньги на оплату серверов, помогите нам пожалуйста в это трудное время. В качестве благодарности мы отключим Вам всю рекламу на сайте (укажите свой ник в строку Ваше имя)!

×
  
Magnet ссылка

Импорт-экспорт / Import/Export (Ульрих Зайдль) [2007 г., драма, HDRip] MVO piratbit.pw

Импорт-экспорт через торрент piratbit.pw

Размер: 1.45 GB | Добавлен: 4 года 6 мес. назад | Торрент скачан:36 раз
Скачать  

18-12-2016 09:58 Импорт-экспорт Скачать торрент  

Импорт-экспорт / Import/Export
Год выпуска: 2007
Страна: Австрия, Франция, Германия
Жанр: драма
Продолжительность: 02:21:24
Перевод: Профессиональный (многоголосый)

Режиссер: Ульрих Зайдль

rating

В ролях: Екатерина Рак, Пауль Хофманн, Майкл Томас, Мария Хофштаттер, Георг Фридрих, Наталья Баранова, Наталья Епуряну, Эрих Финшес, Герберт Фритш, Сюзанна Лотар

Описание: Две отдельные судьбы. Два разных вектора. Ольга, медсестра с Украины, бросает свою семью, чтобы искать лучшую жизнь на Западе и в итоге работает уборщицей в доме престарелых в Австрии. Пауль, безработный охранник из Вены, ищет причину вставать по утрам, отправляется вместе с отчимом на Восток и в итоге оказывается на Украине. Двое молодых людей, жаждущие начать новую жизнь, столкнулись с суровой реальностью. Две истории о поисках счастья и материальной выгоды, о темных сторонах сексуальности и смерти и о том, как трудно чистить зубы чучелу лисы.

Доп. информация: 18+

Качество: HDRip
Формат: AVI
Видео кодек: XviD
Аудио кодек: AC3
Видео: XviD, 1267 Кбит/с, 688x384, 23.976 кадр/с
Аудио: AC3, 2 ch, 192 Кбит/с, 48 kHz
Релиз от: Koenig
Общее
Полное имя : Import.Export.2007.HDRip.avi
Формат : AVI
Формат/Информация : Audio Video Interleave
Размер файла : 1,45 Гбайт
Продолжительность : 2 ч. 21 м.
Общий поток : 1468 Кбит/сек
Программа кодирования : VirtualDubMod 1.5.10.2 (build 2540/release)
Библиотека кодирования : VirtualDubMod build 2540/release

Видео
Идентификатор : 0
Формат : MPEG-4 Visual
Профиль формата : Advanced Simple@L5
Параметр BVOP формата : 1
Параметр QPel формата : Нет
Параметр GMC формата : Без точки перехода
Параметр матрицы формата : Выборочная
Идентификатор кодека : XVID
Идентификатор кодека/Подсказка : XviD
Продолжительность : 2 ч. 21 м.
Битрейт : 1267 Кбит/сек
Ширина : 688 пикселей
Высота : 384 пикселя
Соотношение сторон : 16:9
Частота кадров : 23,976 (24000/1001) кадра/сек
Частота кадров в оригинале : 23,976 (23976/1000) кадра/сек
Цветовое пространство : YUV
Субдискретизация насыщенности : 4:2:0
Битовая глубина : 8 бит
Тип развёртки : Прогрессивная
Метод сжатия : С потерями
Бит/(Пиксели*Кадры) : 0.200
Размер потока : 1,25 Гбайт (86%)
Библиотека кодирования : XviD 73

Аудио
Идентификатор : 1
Формат : AC-3
Формат/Информация : Audio Coding 3
Расширение режима : CM (complete main)
Параметр Endianness формата : Big
Идентификатор кодека : 2000
Продолжительность : 2 ч. 21 м.
Вид битрейта : Постоянный
Битрейт : 192 Кбит/сек
Каналы : 2 канала
Расположение каналов : Front: L R
Частота : 48,0 КГц
Частота кадров : 31,250 кадров/сек (1536 spf)
Битовая глубина : 16 бит
Метод сжатия : С потерями
Размер потока : 194 Мбайт (13%)
Выравнивание : Разделение по промежуткам
Продолжительность промежутка : 42 мс. (1,00 видеокадр)
Время предзагрузки промежутка : 500 мс.

piratbit.pw



Скачать Импорт-экспорт через торрент http://s019.radikal.ru/i618/1612/8f/1f951c29c105.jpg Скачать фильм Импорт-экспорт через торрент бесплантно в хорошем качестве Описание: Две отдельные судьбы. Два разных вектора. Ольга, медсестра с Украины, бросает свою семью, чтобы искать лучшую жизнь на Западе и в ... 10 10 2
Торрент: Зарегистрирован [2016-12-18 09:58] · скачан: 36 раз
Статус: √ проверено
Размер: 1.45 GB
Как cкачать? Как скачать Импорт-экспорт через торрент | UTorrent

28-11-2019 20:33  

Отключить всю рекламу на сайте

    Дорогой пользователь! Огромная просьба, поблагодарите релизера, оцените раздачу и оставьте свои комментарий, если Вы скачали Импорт-экспорт через торрент бесплатно! Внесите свою лепту в развитие PiratBit!
    Комментировать посты могут только пользователи прошедшие не сложную регистрацию
    Показать сообщения:    

    Импорт-экспорт через торрент
    Скачать бесплатно Импорт-экспорт
    Импорт-экспорт скачать торрент
    Импорт-экспорт смотреть онлайн
    Cкачать фильм Импорт-экспорт бесплатно
    Импорт-экспорт скачать торрент в хорошем качестве
    Импорт-экспорт смотреть онлайн бесплатно в хорошем качестве


    Вы не можете начинать темы
    Вы не можете отвечать на сообщения
    Вы не можете редактировать свои сообщения
    Вы не можете удалять свои сообщения
    Вы не можете голосовать в опросах
    Вы не можете прикреплять файлы к сообщениям
    Вы можете скачивать файлы