Ссылка на приватное зеркало нашего сайта всего за 1$. Внимание количество ограничено!!!

2 сезон

iTunes

iTunes

1

iTunes

iTunes

iTunes

WEBRip

iTunes

30
pack

Вам бонус

ВАЖНО

!!Акция!!

Alien_RageХит недели

RePack

Horizon Zero Dawn

ИГРА 18+

pack

RePack

jed

!!Акция!!

Alien_Rage

RePack

fifa19

RePack

Assassins Creed: Odyssey

RePack

NEED FOR SPEED™ PAYBACK

4 сезон

9 сезон

Бесстыжие 9 сезон

Все сериалы

все сериалы на PB.wtf

RePack

FAR CRY 5
  

Эластико (Михаил Расходников) [2016, спорт, мелодрама, криминал, WEB-DL 1080p] iTunes piratbit.pw

Эластико через торрент piratbit.pw

Размер: 2.9 GB | Добавлен: 3 года 9 мес. назад | Торрент скачан:1140 раз
Скачать  

15-12-2016 06:36 Эластико Скачать торрент  

Эластико

Год выпуска: 2016
Страна: Россия
Жанр: спорт, мелодрама, криминал
Продолжительность: 01:21:25
Перевод: Не требуется [Русский] [iTunes]
Примечание: Релиз без рекламы
Режиссер: Михаил Расходников
В ролях:

Дмитрий Власкин, Ирина Антоненко, Алексей Маклаков, Александр Фролов, Владимир Епифанцев, Никита Волков (Вадим), Никита Павленко, Ирина Безряднова, Максим Сорочинский, Петр Прозоровский, Александр Борголов, Александр Кузьминов
Описание:
Матвей - простой парень из провинциального города. Он вырос с друзьями «на районе», здесь же встретил свою любовь - Дашу. От других Матвея отличают уникальные физические данные - крепкие ноги, мощная дыхалка, поразительная выносливость. Свой талант он использует, выигрывая со своей командой всех в дворовом футболе... и в мелких криминальных авантюрах, которые ему подгоняет друг Каша. Любимую девушку Дашу это очень беспокоит, и она всячески пытается оградить своего парня от необратимой ошибки. А подруги пытаются убедить Дашу бросить Матвея, ведь у нее даже есть перспективный вариант - обеспеченный ухажер Вадим. Неожиданно у Матвея появляется просто сказочная возможность поехать на смотр в Москву в футбольный клуб Премьер-лиги, но он не хочет оставлять Дашу, когда рядом «вьется» Вадим. А для того, чтобы взять её с собой, нужно достать деньги.
Рейтинг:

Качество: WEB-DL 1080p
Формат: MKV
Видео: AVC, 1920x804 (2.40:1), 4609 kbps, 25 fps, 0,119 bpp
Аудио: русский / AC3 / 5.1 / 48 kHz / 384 kbps / |iTunes|
Навигация по главам: есть
General
Unique ID : 254459120125947184761969420161490749359 (0xBF6F0B3D823D71E68CBC5828A20607AF)
Complete name : E:\ELasTiKo.2O16.O.WEB-DL.1O8Op_KOSHARA.mkv
Format : Matroska
Format version : Version 2
File size : 2.90 GiB
Duration : 1 h 21 min
Overall bit rate : 5 095 kb/s
Encoded date : UTC 2016-12-14 19:26:41
Writing application : mkvmerge v8.3.0 ('Over the Horizon') 64bit
Writing library : libebml v1.3.1 + libmatroska v1.4.2

Video
ID : 1
Format : AVC
Format/Info : Advanced Video Codec
Format profile : High@L4
Format settings, CABAC : Yes
Format settings, ReFrames : 5 frames
Codec ID : V_MPEG4/ISO/AVC
Duration : 1 h 21 min
Bit rate : 4 610 kb/s
Width : 1 920 pixels
Height : 804 pixels
Display aspect ratio : 2.40:1
Frame rate mode : Constant
Frame rate : 25.000 FPS
Color space : YUV
Chroma subsampling : 4:2:0
Bit depth : 8 bits
Scan type : Progressive
Bits/(Pixel*Frame) : 0.119
Stream size : 2.62 GiB (90%)
Language : English
Default : Yes
Forced : No
Color range : Limited
Color primaries : BT.709
Transfer characteristics : BT.709
Matrix coefficients : BT.709

Audio
ID : 2
Format : AC-3
Format/Info : Audio Coding 3
Mode extension : CM (complete main)
Format settings, Endianness : Big
Codec ID : A_AC3
Duration : 1 h 21 min
Bit rate mode : Constant
Bit rate : 384 kb/s
Channel(s) : 6 channels
Channel positions : Front: L C R, Side: L R, LFE
Sampling rate : 48.0 kHz
Frame rate : 31.250 FPS (1536 spf)
Compression mode : Lossy
Stream size : 224 MiB (8%)
Language : Russian
Default : Yes
Forced : No

Menu
00:00:00.000 : en:Глава 1
00:08:02.920 : en:Глава 2
00:15:23.280 : en:Глава 3
00:21:52.440 : en:Глава 4
00:29:48.040 : en:Глава 5
00:37:05.120 : en:Глава 6
00:44:51.880 : en:Глава 7
00:51:16.960 : en:Глава 8
00:58:29.800 : en:Глава 9
01:05:10.560 : en:Глава 10
01:12:08.040 : en:Глава 11
piratbit.pw



Скачать Эластико через торрент http://i3.imageban.ru/out/2016/12/15/917abfb5c6684152d09fa73ea5f0185b.jpg Скачать фильм Эластико через торрент бесплантно в хорошем качестве Описание: Матвей - простой парень из провинциального города. Он вырос с друзьями «на районе», здесь же встретил свою любовь - Дашу. От ... 9.2 10 23
Info! Золотая раздача, скачанное не засчитывается.
Торрент: Зарегистрирован [2016-12-15 06:36] · скачан: 1 140 раз
Статус: √ проверено
Размер: 2.9 GB
Как cкачать? Как скачать Эластико через торрент | qTorrent

% Раздел Тема Автор DL S | L
Наши новые фильмы 2016 [ 1.46 GB ] Эластико [2016 WEB-DLRip] bober100 Скачать
1 | 0
Наши новые фильмы 2016 [ 1.51 GB ] Эластико [2016 WEB-DLRip-AVC] bober100 Скачать
1 | 0
Наши новые фильмы 2016 [ 741 MB ] Эластико [2016 WEB-DLRip-AVC] bober100 Скачать
1 | 0

28-11-2019 20:33  

Отключить всю рекламу на сайте

17-12-2016 18:11 Эластико Скачать торрент  

Очень понравился!piratbit.pw



13-03-2017 19:25 Эластико Скачать торрент  

Спасибо!!! Свой родной Улан-Удэнский фильм посмотреть)))piratbit.pw
K-Lexx- писал(а):

Приятного просмотра!



    Дорогой пользователь! Огромная просьба, поблагодарите релизера, оцените раздачу и оставьте свои комментарий, если Вы скачали Эластико через торрент бесплатно! Внесите свою лепту в развитие PiratBit!
    Комментировать посты могут только пользователи прошедшие не сложную регистрацию
    Показать сообщения:    

    Эластико через торрент
    Скачать бесплатно Эластико
    Эластико скачать торрент
    Эластико смотреть онлайн
    Cкачать фильм Эластико бесплатно
    Эластико скачать торрент в хорошем качестве
    Эластико смотреть онлайн бесплатно в хорошем качестве


    Вы не можете начинать темы
    Вы не можете отвечать на сообщения
    Вы не можете редактировать свои сообщения
    Вы не можете удалять свои сообщения
    Вы не можете голосовать в опросах
    Вы не можете прикреплять файлы к сообщениям
    Вы можете скачивать файлы