Ссылка на приватное зеркало нашего сайта всего за 1$. Внимание количество ограничено!!!

2 сезон

iTunes

iTunes

1

iTunes

iTunes

iTunes

WEBRip

iTunes

30
pack

Новость дня

ВАЖНО

!!Акция!!

Alien_RageХит недели

RePack

Horizon Zero Dawn

ИГРА 18+

pack

RePack

jed

!!Акция!!

Alien_Rage

RePack

fifa19

RePack

Assassins Creed: Odyssey

RePack

NEED FOR SPEED™ PAYBACK

4 сезон

9 сезон

Бесстыжие 9 сезон

Все сериалы

все сериалы на PB.wtf

RePack

FAR CRY 5
  

Ледокол (Николай Хомерики) [2016, драма, BDRip 1080p] Оригинал [Лицензия] piratbit.pw

Ледокол через торрент piratbit.pw

Размер: 7.74 GB | Добавлен: 3 года 9 мес. назад | Торрент скачан:750 раз
Скачать  

11-12-2016 08:41 Ледокол Скачать торрент  

Ледокол

Год выпуска: 2016
Страна: Россия
Жанр: драма

Продолжительность: 02:03:57
Перевод: Не требуется [Русский] [Лицензия]
Режиссер: Николай Хомерики
В ролях:

Пётр Фёдоров (Петров), Сергей Пускепалис (Севченко), Анна Михалкова (Галина), Ольга Филимонова (Люда), Александр Яценко (Цимбалистый), Александр Паль (Кукушкин), Виталий Хаев (Банник), Алексей Барабаш (Еремеев), Дмитрий Муляр (Сафонов), Артур Чиргадзе (моряк), Александра Серебрякова (сестра-анастезистка, в титрах не указана), Артур Ваха (врач)
Описание:
Основано на реальных событиях. 1985 год. Навстречу ледоколу «Михаил Громов» движется огромный айсберг. Уходя от столкновения с ним, судно попадает в ледовый плен и оказывается в вынужденном дрейфе вблизи побережья Антарктиды. Вокруг зловещая тишина и жуткий холод. Горючее на исходе... Нервы на пределе... И даже если можно было бы уйти - деваться все равно некуда. У командования ледокола нет права на ошибку. Одно неверное решение - и тяжелые льды раздавят судно...
Рейтинг:

Качество: BDRip 1080p
Формат: MKV
Видео: AVC, 1920x804 (2.40:1), 8303 kbps, 24 fps, 0,224 bpp
Аудио: русский / AC3 / 5.1 / 48 kHz / 640 kbps / |Лицензия|
Навигация по главам: есть
Релиз от:
General
Unique ID : 217925523110245323379824400322571152359 (0xA3F2EDD6E777B724BBB8A733F57E2BE7)
Complete name : E:\ledokol.(2016).BDRip.1080.(qqss44).mkv
Format : Matroska
Format version : Version 2
File size : 7.74 GiB
Duration : 2 h 3 min
Overall bit rate : 8 941 kb/s
Movie name : ledokol.(2016).BDRip.1080.(qqss44)
Encoded date : UTC 2016-12-09 13:47:34
Writing application : mkvmerge v7.9.0 ('Birds') 64bit
Writing library : libebml v1.3.1 + libmatroska v1.4.2

Video
ID : 1
Format : AVC
Format/Info : Advanced Video Codec
Format profile : High@L4.1
Format settings, CABAC : Yes
Format settings, ReFrames : 5 frames
Codec ID : V_MPEG4/ISO/AVC
Duration : 2 h 3 min
Bit rate : 8 303 kb/s
Width : 1 920 pixels
Height : 804 pixels
Display aspect ratio : 2.40:1
Frame rate mode : Constant
Frame rate : 24.000 FPS
Color space : YUV
Chroma subsampling : 4:2:0
Bit depth : 8 bits
Scan type : Progressive
Bits/(Pixel*Frame) : 0.224
Stream size : 7.03 GiB (91%)
Title : ledokol.(2016).BDRip.1080.(qqss44)
Writing library : x264 core 148 r2721kMod 72d53ab
Encoding settings : cabac=1 / ref=5 / deblock=1:-3:-3 / analyse=0x3:0x133 / me=umh / subme=11 / psy=1 / fade_compensate=0.00 / psy_rd=1.00:0.00 / mixed_ref=1 / me_range=32 / chroma_me=1 / trellis=2 / 8x8dct=1 / cqm=0 / deadzone=21,11 / fast_pskip=0 / chroma_qp_offset=-2 / threads=12 / lookahead_threads=3 / sliced_threads=0 / nr=0 / decimate=0 / interlaced=0 / bluray_compat=0 / constrained_intra=0 / fgo=0 / bframes=10 / b_pyramid=2 / b_adapt=2 / b_bias=0 / direct=3 / weightb=1 / open_gop=0 / weightp=2 / keyint=240 / keyint_min=23 / scenecut=40 / intra_refresh=0 / rc=2pass / mbtree=0 / bitrate=8303 / ratetol=1.0 / qcomp=0.60 / qpmin=0 / qpmax=69 / qpstep=4 / cplxblur=20.0 / qblur=0.5 / ip_ratio=1.40 / pb_ratio=1.30 / aq=3:0.80
Language : English
Default : Yes
Forced : No

Audio
ID : 2
Format : AC-3
Format/Info : Audio Coding 3
Mode extension : CM (complete main)
Format settings, Endianness : Big
Codec ID : A_AC3
Duration : 2 h 3 min
Bit rate mode : Constant
Bit rate : 640 kb/s
Channel(s) : 6 channels
Channel positions : Front: L C R, Side: L R, LFE
Sampling rate : 48.0 kHz
Frame rate : 31.250 FPS (1536 spf)
Compression mode : Lossy
Stream size : 567 MiB (7%)
Language : Russian
Default : Yes
Forced : No

Menu
00:00:00.000 : en:00:00:00.000
00:01:27.667 : en:00:01:27.667
00:14:46.833 : en:00:14:46.833
00:29:43.208 : en:00:29:43.208
00:43:48.375 : en:00:43:48.375
01:00:09.125 : en:01:00:09.125
01:14:15.625 : en:01:14:15.625
01:29:17.625 : en:01:29:17.625
01:47:28.042 : en:01:47:28.042
piratbit.pw



Скачать Ледокол через торрент http://i2.imageban.ru/out/2016/12/11/61e2b21f60bd058ad5ac7e7a03275c21.png Скачать фильм Ледокол через торрент бесплантно в хорошем качестве Описание: Основано на реальных событиях. 1985 год. Навстречу ледоколу «Михаил Громов» движется огромный айсберг. Уходя от столкновения с ... 9.4 10 18
Info! Золотая раздача, скачанное не засчитывается.
Торрент: Зарегистрирован [2016-12-11 08:41] · скачан: 750 раз
Статус: √ проверено
Размер: 7.74 GB
Как cкачать? Как скачать Ледокол через торрент | qTorrent

% Раздел Тема Автор DL S | L
Отечественный Рэп, Хип-Хоп [ 114 MB ] ГРОТ - Ледокол Вега 2017 / MP3 / 320 kbps / Rap bober100 Скачать
1 | 0
Наши новые фильмы 2016 [ 1.46 GB ] Ледокол [2016 BDRip] Оригинал [] Twi7ter Скачать
2 | 0
Наши фильмы (Blu-ray, BD-Remux, HDDVD) [ 20.42 GB ] Ледокол [2016 катастрофа BD Remux Оригинальный ()] Бумер Скачать
1 | 0
Наши фильмы (HD, WEB-DL 720p, 1080p) [ 4.37 GB ] Ледокол [2016 BDRip 720p] [] potroks Скачать
1 | 0
Наши новые фильмы 2016 [ 2.18 GB ] Ледокол [2016 BDRip] Оригинал [] Twi7ter Скачать
1 | 0
Наши новые фильмы 2017 [ 2.73 GB ] Ледокол [2016 BDRip-AVC] Оригинал [] R.G.Resident schultz Скачать
1 | 0
T Релизы по Парсеру [Игры, Сериалы и Фильмы и другое...] [ 747 MB ] Ледокол [2016 BDRip] Sherif Скачать
1 | 0

28-11-2019 20:33  

Отключить всю рекламу на сайте

30-12-2016 22:56 Ледокол Скачать торрент  

Неплохой фильм!piratbit.pw



31-10-2018 15:04 Ледокол Скачать торрент  

Не знаю как фильм, но сам файл отвратительный. Смотреть вообще не возможно. Музыка заглушает все диалогиpiratbit.pw



    Дорогой пользователь! Огромная просьба, поблагодарите релизера, оцените раздачу и оставьте свои комментарий, если Вы скачали Ледокол через торрент бесплатно! Внесите свою лепту в развитие PiratBit!
    Комментировать посты могут только пользователи прошедшие не сложную регистрацию
    Показать сообщения:    

    Ледокол через торрент
    Скачать бесплатно Ледокол
    Ледокол скачать торрент
    Ледокол смотреть онлайн
    Cкачать фильм Ледокол бесплатно
    Ледокол скачать торрент в хорошем качестве
    Ледокол смотреть онлайн бесплатно в хорошем качестве


    Вы не можете начинать темы
    Вы не можете отвечать на сообщения
    Вы не можете редактировать свои сообщения
    Вы не можете удалять свои сообщения
    Вы не можете голосовать в опросах
    Вы не можете прикреплять файлы к сообщениям
    Вы можете скачивать файлы