Marvel's Avengers Deluxe Edition (супер цена) 159р. Внимание количество ограничено!!!

2 сезон

iTunes

iTunes

1

iTunes

iTunes

iTunes

WEBRip

iTunes

30
pack

Новость дня

ВАЖНО

!!Акция!!

Alien_RageХит недели

RePack

Horizon Zero Dawn

ИГРА 18+

pack

RePack

jed

!!Акция!!

Alien_Rage

RePack

fifa19

RePack

Assassins Creed: Odyssey

RePack

NEED FOR SPEED™ PAYBACK

4 сезон

9 сезон

Бесстыжие 9 сезон

Все сериалы

все сериалы на PB.wtf

RePack

FAR CRY 5
  

Лейтенант (Евгений Эпштейн) [2016, драма, WEB-DL 1080p] iTunes piratbit.pw

Лейтенант через торрент piratbit.pw

Размер: 3.25 GB | Добавлен: 3 года 9 мес. назад | Торрент скачан:313 раз
Скачать  

06-12-2016 16:32 Лейтенант Скачать торрент  

Лейтенант

Год выпуска: 2016
Страна: Россия
Жанр: драма
Продолжительность: 01:24:35
Перевод: Не требуется [Русский] [iTunes]
Режиссер: Евгений Эпштейн
В ролях:
Антон Левин, Виктор Забровский, Степан Румянцев, Сергей Бойков, Сергей Остапюк, Вячеслав Дергачев, Евгений Мендус, Александр Муштуков, Ярослав Лозяк
Описание:
Ноябрь, 1941 год. Группа солдат во главе с молодым лейтенантом Иваном Горчаковым отправляется на задание - взорвать артиллерийскую немецкую базу и остановить наступление немцев на Москву. За 48 часов им предстоит преодолеть 60 километров по открытому пространству. Сначала пешком, потом ползком. Во время этого сложнейшего пути важно не только выстоять, но и остаться людьми.
Рейтинг:

Качество: WEB-DL 1080p
Формат: MKV
Видео: AVC, 1920x1080 (16:9), 5013 kbps, 24 fps, 0,101 bpp
Аудио: русский / AC3 / 5.1 / 48 kHz / 384 kbps / |iTunes|
Навигация по главам: есть
Релиз от:
General
Unique ID : 199266856612024546948176576589673296682 (0x95E9668E333ACC35B83F11C16EB0732A)
Complete name : E:\Lejtenant.2016.WEB-DL.(1080p).mkv
Format : Matroska
Format version : Version 4 / Version 2
File size : 3.25 GiB
Duration : 1 h 24 min
Overall bit rate : 5 507 kb/s
Movie name : LIEUTENANT_WEB_DL_1080p-BLUEBIRD
Encoded date : UTC 2016-12-05 15:22:27
Writing application : mkvmerge v6.9.1 ('Blue Panther') 32bit built on Apr 18 2014 18:15:44
Writing library : libebml v1.3.0 + libmatroska v1.4.1

Video
ID : 1
Format : AVC
Format/Info : Advanced Video Codec
Format profile : High@L4
Format settings, CABAC : Yes
Format settings, ReFrames : 4 frames
Codec ID : V_MPEG4/ISO/AVC
Duration : 1 h 24 min
Bit rate : 5 013 kb/s
Width : 1 920 pixels
Height : 1 080 pixels
Display aspect ratio : 16:9
Frame rate mode : Constant
Frame rate : 24.000 FPS
Color space : YUV
Chroma subsampling : 4:2:0
Bit depth : 8 bits
Scan type : Progressive
Bits/(Pixel*Frame) : 0.101
Stream size : 2.96 GiB (91%)
Title : LIEUTENANT_WEB_DL_1080p-BLUEBIRD
Language : Russian
Default : Yes
Forced : No
Color range : Limited
Color primaries : BT.709
Transfer characteristics : BT.709
Matrix coefficients : BT.709

Audio
ID : 2
Format : AC-3
Format/Info : Audio Coding 3
Mode extension : CM (complete main)
Format settings, Endianness : Big
Codec ID : A_AC3
Duration : 1 h 24 min
Bit rate mode : Constant
Bit rate : 384 kb/s
Channel(s) : 6 channels
Channel positions : Front: L C R, Side: L R, LFE
Sampling rate : 48.0 kHz
Frame rate : 31.250 FPS (1536 spf)
Compression mode : Lossy
Stream size : 232 MiB (7%)
Title : [ORIGINAL] DD 5.1 @ 384 kbps (iTunes)
Language : Russian
Default : Yes
Forced : No

Menu
00:00:00.000 : en:Глава 1
00:07:12.291 : en:Глава 2
00:13:40.707 : en:Глава 3
00:19:00.707 : en:Глава 4
00:24:20.748 : en:Глава 5
00:30:43.789 : en:Глава 6
00:37:16.205 : en:Глава 7
00:43:40.205 : en:Глава 8
00:50:52.705 : en:Глава 9
00:58:19.413 : en:Глава 10
01:04:29.079 : en:Глава 11
01:10:08.704 : en:Глава 12
01:15:44.870 : en:Глава 13
piratbit.pw



Скачать Лейтенант через торрент http://i4.imageban.ru/out/2016/12/06/9c58006c31c4094cd9aeca85f244c160.jpg Скачать фильм Лейтенант через торрент бесплантно в хорошем качестве Описание: Ноябрь, 1941 год. Группа солдат во главе с молодым лейтенантом Иваном Горчаковым отправляется на задание - взорвать ... 10 10 11
Торрент: Зарегистрирован [2016-12-06 16:32] · скачан: 313 раз
Статус: √ проверено
Размер: 3.25 GB
Как cкачать? Как скачать Лейтенант через торрент | qTorrent

% Раздел Тема Автор DL S | L
Наши новые фильмы 2016 [ 1.37 GB ] Лейтенант [2016 WEB-DLRip] Russian Mafia Скачать
1 | 0

28-11-2019 20:33  

Отключить всю рекламу на сайте

06-12-2016 19:26 Лейтенант Скачать торрент  

так и не понял, о чём фильм - тупо "на убой" повёл взвод "разведчиков": постоянно стоят под обстрелом, маскхалаты мажут грязью при любой возможности, волокут за собой раненого - чтобы след виднее был.
поставленная задача не выполнена, и всё это под лозунгом "иначе ребята погибли зазря?" - это о тех, кого лейтенантишка уже положил в предыдущем бою.

об игре актёров - отвратительная, весь "фильм" общаются либо шутками-прибаутками-пословицами-и-поговорками, либо командами "лечь-встать-шаом марш".piratbit.pw



06-12-2016 19:58 Лейтенант Скачать торрент  

sergunka, спасибо.piratbit.pw



04-01-2017 09:07 Лейтенант Скачать торрент  

Настоящий фильм о настоящем человеке в настоящей войне.Экшена для привыкших голливуду и российской поп-режиссуре хомячков тут нет.Нет ремб-героев,нет персонажей как таковых,а есть обычные люди.Это не фильм ради фильма,это не драма,а хроника одного случая и игры актеров потому тут и нет.Как нет слащавых и прикормленных рож российского кино-бомонда.piratbit.pw



    Дорогой пользователь! Огромная просьба, поблагодарите релизера, оцените раздачу и оставьте свои комментарий, если Вы скачали Лейтенант через торрент бесплатно! Внесите свою лепту в развитие PiratBit!
    Комментировать посты могут только пользователи прошедшие не сложную регистрацию
    Показать сообщения:    

    Лейтенант через торрент
    Скачать бесплатно Лейтенант
    Лейтенант скачать торрент
    Лейтенант смотреть онлайн
    Cкачать фильм Лейтенант бесплатно
    Лейтенант скачать торрент в хорошем качестве
    Лейтенант смотреть онлайн бесплатно в хорошем качестве


    Вы не можете начинать темы
    Вы не можете отвечать на сообщения
    Вы не можете редактировать свои сообщения
    Вы не можете удалять свои сообщения
    Вы не можете голосовать в опросах
    Вы не можете прикреплять файлы к сообщениям
    Вы можете скачивать файлы