2 сезон

iTunes

1 сезон

1

iTunes

iTunes

iTunes

1 сезон

RePack

30

ИГРА 18+

pack

ВАЖНО

!!Акция!!

Alien_RageХит недели

RePack

MK11
pack

Забери бонус

RePack

jed

!!Акция!!

Alien_Rage

RePack

fifa19

RePack

Assassins Creed: Odyssey

RePack

NEED FOR SPEED™ PAYBACK

4 сезон

9 сезон

Бесстыжие 9 сезон

Все сериалы

все сериалы на PB.wtf

RePack

FAR CRY 5
  

Возвращение Дона Камилло / Le retour de Don Camillo (Жюльен Дювивье) [1953 г., комедия, BDRip] MVO piratbit.pw

Возвращение Дона Камилло через торрент piratbit.pw

Размер: 1.46 GB | Добавлен: 3 года 11 мес. назад | Торрент скачан:6 раз
Скачать  

27-11-2016 16:15 Возвращение Дона Камилло Скачать торрент  

Возвращение Дона Камилло / Le retour de Don Camillo
Год выпуска: 1953
Страна: Франция, Италия
Жанр: комедия
Продолжительность: 01:50:36
Перевод: Профессиональный (многоголосый)

Режиссер: Жюльен Дювивье

rating

В ролях: Фернандель, Джино Черви, Эдуард Дельмон, Паоло Стоппа, Александр Ригно, Томи Бурдель, Леда Глория, Чарльз Виссьер, Тони Жако, Саро Урци, Мануэль Гари, Лия Ди Лео, Марко Тулли, Артуро Брагэглия, Пина Галлини, Энцо Стайола, Жан Дебюкур, Руджеро Руджери, Жак Эйзер, Андре Хильдебранд

Описание: Во втором фильме о пасторе доне Камилло, герой возвращается в родной городок, после вынужденной ссылки за плохое поведение.

Качество: BDRip
Формат: AVI
Видео кодек: XviD
Аудио кодек: AC3
Видео: XviD, 1488 Кбит/с, 720x544, 23.976 кадр/с
Аудио#1: AC3, 2 ch, 192 Кбит/с, 48 kHz | Русский
Аудио#2: AC3, 2 ch, 192 Кбит/с, 48 kHz | Итальянский
Релиз от: Koenig
Общее
Полное имя : Return.of.Don.Camillo.1953.BDRip.avi
Формат : AVI
Формат/Информация : Audio Video Interleave
Размер файла : 1,46 Гбайт
Продолжительность : 1 ч. 50 м.
Общий поток : 1886 Кбит/сек
Программа кодирования : VirtualDubMod 1.5.10.2 (build 2540/release)
Библиотека кодирования : VirtualDubMod build 2540/release

Видео
Идентификатор : 0
Формат : MPEG-4 Visual
Профиль формата : Advanced Simple@L5
Параметр BVOP формата : 1
Параметр QPel формата : Нет
Параметр GMC формата : Без точки перехода
Параметр матрицы формата : Выборочная
Идентификатор кодека : XVID
Идентификатор кодека/Подсказка : XviD
Продолжительность : 1 ч. 50 м.
Битрейт : 1488 Кбит/сек
Ширина : 720 пикселей
Высота : 544 пикселя
Соотношение сторон : 4:3
Частота кадров : 23,976 (24000/1001) кадра/сек
Частота кадров в оригинале : 23,976 (23976/1000) кадра/сек
Цветовое пространство : YUV
Субдискретизация насыщенности : 4:2:0
Битовая глубина : 8 бит
Тип развёртки : Прогрессивная
Метод сжатия : С потерями
Бит/(Пиксели*Кадры) : 0.158
Размер потока : 1,15 Гбайт (79%)
Библиотека кодирования : XviD 73

Аудио #1
Идентификатор : 1
Формат : AC-3
Формат/Информация : Audio Coding 3
Расширение режима : CM (complete main)
Параметр Endianness формата : Big
Идентификатор кодека : 2000
Продолжительность : 1 ч. 50 м.
Вид битрейта : Постоянный
Битрейт : 192 Кбит/сек
Каналы : 2 канала
Расположение каналов : Front: L R
Частота : 48,0 КГц
Частота кадров : 31,250 кадров/сек (1536 spf)
Битовая глубина : 16 бит
Метод сжатия : С потерями
Размер потока : 152 Мбайт (10%)
Выравнивание : Разделение по промежуткам
Продолжительность промежутка : 42 мс. (1,00 видеокадр)
Время предзагрузки промежутка : 500 мс.

Аудио #2
Идентификатор : 2
Формат : AC-3
Формат/Информация : Audio Coding 3
Расширение режима : CM (complete main)
Параметр Endianness формата : Big
Идентификатор кодека : 2000
Продолжительность : 1 ч. 50 м.
Вид битрейта : Постоянный
Битрейт : 192 Кбит/сек
Каналы : 2 канала
Расположение каналов : Front: L R
Частота : 48,0 КГц
Частота кадров : 31,250 кадров/сек (1536 spf)
Битовая глубина : 16 бит
Метод сжатия : С потерями
Размер потока : 152 Мбайт (10%)
Выравнивание : Разделение по промежуткам
Продолжительность промежутка : 42 мс. (1,00 видеокадр)
Время предзагрузки промежутка : 500 мс.

piratbit.pw



Скачать Возвращение Дона Камилло через торрент http://pic1.kartinco.top/images/11/seq66.jpg Скачать фильм Возвращение Дона Камилло через торрент бесплантно в хорошем качестве Описание: Во втором фильме о пасторе доне Камилло, герой возвращается в родной городок, после вынужденной ссылки за плохое ... 1 10 1
Торрент: Зарегистрирован [2016-11-27 16:15] · скачан: 6 раз
Статус: √ проверено
Размер: 1.46 GB
Как cкачать? Как скачать Возвращение Дона Камилло через торрент | qTorrent

28-11-2019 20:33  

Отключить всю рекламу на сайте

    Дорогой пользователь! Огромная просьба, поблагодарите релизера, оцените раздачу и оставьте свои комментарий, если Вы скачали Возвращение Дона Камилло через торрент бесплатно! Внесите свою лепту в развитие PiratBit!
    Комментировать посты могут только пользователи прошедшие не сложную регистрацию
    Показать сообщения:    

    Возвращение Дона Камилло через торрент
    Скачать бесплатно Возвращение Дона Камилло
    Возвращение Дона Камилло скачать торрент
    Возвращение Дона Камилло смотреть онлайн
    Cкачать фильм Возвращение Дона Камилло бесплатно
    Возвращение Дона Камилло скачать торрент в хорошем качестве
    Возвращение Дона Камилло смотреть онлайн бесплатно в хорошем качестве


    Вы не можете начинать темы
    Вы не можете отвечать на сообщения
    Вы не можете редактировать свои сообщения
    Вы не можете удалять свои сообщения
    Вы не можете голосовать в опросах
    Вы не можете прикреплять файлы к сообщениям
    Вы можете скачивать файлы