1 сезон

1 сезон

iTunes

1

КиноПоиск HD

Кинопоиск HD

iTunes

13

1 сезон

RePack

30

Deluxe

ВАЖНО

ИГРА 18+

pack

RePack

MK11
pack

Легкие деньги

RePack

jed

RePack

fifa19

RePack

RDR2

RePack

NEED FOR SPEED™ PAYBACK

4 сезон

9 сезон

Бесстыжие 9 сезон

Все сериалы

все сериалы на PB.wtf

RePack

FAR CRY 5
  
Magnet ссылка

Морская прогулка / Donkey Punch (Оливер Блэкберн) [2008 г., триллер, драма, криминал, BDRip] MVO piratbit.pw

Морская прогулка через торрент piratbit.pw

Размер: 1.45 GB | Добавлен: 4 года 5 мес. назад | Торрент скачан:69 раз
Скачать  

26-11-2016 15:10 Морская прогулка Скачать торрент  

Морская прогулка / Donkey Punch
Год выпуска: 2008
Страна: Великобритания
Жанр: триллер, драма, криминал
Продолжительность: 01:39:20
Перевод: Профессиональный (многоголосый)

Режиссер: Оливер Блэкберн

rating

В ролях: Роберт Болтер, Шан Брекин, Том Берк, Никола Бёрли, Джулиан Моррис, Джей Тейлор, Джейми Уинстон

Описание: Три девушки, приехавшие на Ибицу поразвлечься, знакомятся в ночном клубе с парнями, чей уровень дохода заметно превышает их собственный. Приняв приглашение отдохнуть на борту роскошной яхты, одна из них, после обильного возлияния, погибает. Начавшиеся споры о том, что делать дальше, приводят к безжалостной борьбе за выживание.

Качество: BDRip
Формат: AVI
Видео кодек: XviD
Аудио кодек: AC3
Видео: XviD, 1886 Кбит/с, 704x384, 23.976 кадр/с
Аудио: AC3, 2 ch, 192 Кбит/с, 48 kHz
Релиз от: Koenig
Общее
Полное имя : Donkey.Punch.2008.BDRip.avi
Формат : AVI
Формат/Информация : Audio Video Interleave
Размер файла : 1,45 Гбайт
Продолжительность : 1 ч. 39 м.
Общий поток : 2087 Кбит/сек
Программа кодирования : VirtualDubMod 1.5.10.2 (build 2540/release)
Библиотека кодирования : VirtualDubMod build 2540/release

Видео
Идентификатор : 0
Формат : MPEG-4 Visual
Профиль формата : Advanced Simple@L5
Параметр BVOP формата : 1
Параметр QPel формата : Нет
Параметр GMC формата : Без точки перехода
Параметр матрицы формата : Выборочная
Идентификатор кодека : XVID
Идентификатор кодека/Подсказка : XviD
Продолжительность : 1 ч. 39 м.
Битрейт : 1886 Кбит/сек
Ширина : 704 пикселя
Высота : 384 пикселя
Соотношение сторон : 1,85:1
Частота кадров : 23,976 (24000/1001) кадра/сек
Частота кадров в оригинале : 23,976 (23976/1000) кадра/сек
Цветовое пространство : YUV
Субдискретизация насыщенности : 4:2:0
Битовая глубина : 8 бит
Тип развёртки : Прогрессивная
Метод сжатия : С потерями
Бит/(Пиксели*Кадры) : 0.291
Размер потока : 1,31 Гбайт (90%)
Библиотека кодирования : XviD 73

Аудио
Идентификатор : 1
Формат : AC-3
Формат/Информация : Audio Coding 3
Расширение режима : CM (complete main)
Параметр Endianness формата : Big
Идентификатор кодека : 2000
Продолжительность : 1 ч. 39 м.
Вид битрейта : Постоянный
Битрейт : 192 Кбит/сек
Каналы : 2 канала
Расположение каналов : Front: L R
Частота : 48,0 КГц
Частота кадров : 31,250 кадров/сек (1536 spf)
Битовая глубина : 16 бит
Метод сжатия : С потерями
Размер потока : 136 Мбайт (9%)
Выравнивание : Разделение по промежуткам
Продолжительность промежутка : 42 мс. (1,00 видеокадр)
Время предзагрузки промежутка : 500 мс.

piratbit.pw



Скачать Морская прогулка через торрент http://i84.fastpic.ru/big/2016/1126/38/85d0e8b19acd90c666040f9389d1f738.jpg Скачать фильм Морская прогулка через торрент бесплантно в хорошем качестве Описание: Три девушки, приехавшие на Ибицу поразвлечься, знакомятся в ночном клубе с парнями, чей уровень дохода заметно превышает их ... 9.6 10 5
Торрент: Зарегистрирован [2016-11-26 15:10] · скачан: 69 раз
Статус: √ проверено
Размер: 1.45 GB
Как cкачать? Как скачать Морская прогулка через торрент | UTorrent

28-11-2019 20:33  

Отключить всю рекламу на сайте

    Дорогой пользователь! Огромная просьба, поблагодарите релизера, оцените раздачу и оставьте свои комментарий, если Вы скачали Морская прогулка через торрент бесплатно! Внесите свою лепту в развитие PiratBit!
    Комментировать посты могут только пользователи прошедшие не сложную регистрацию
    Показать сообщения:    

    Морская прогулка через торрент
    Скачать бесплатно Морская прогулка
    Морская прогулка скачать торрент
    Морская прогулка смотреть онлайн
    Cкачать фильм Морская прогулка бесплатно
    Морская прогулка скачать торрент в хорошем качестве
    Морская прогулка смотреть онлайн бесплатно в хорошем качестве


    Вы не можете начинать темы
    Вы не можете отвечать на сообщения
    Вы не можете редактировать свои сообщения
    Вы не можете удалять свои сообщения
    Вы не можете голосовать в опросах
    Вы не можете прикреплять файлы к сообщениям
    Вы можете скачивать файлы