1 сезон

1 сезон

iTunes

1

КиноПоиск HD

Кинопоиск HD

iTunes

13

1 сезон

RePack

30

Новинка

ВАЖНО

ИГРА 18+

pack

RePack

MK11
pack

Легкие деньги

RePack

jed

RePack

fifa19

RePack

RDR2

RePack

NEED FOR SPEED™ PAYBACK

4 сезон

9 сезон

Бесстыжие 9 сезон

Все сериалы

все сериалы на PB.wtf

RePack

FAR CRY 5
  
Magnet ссылка

Доверие / The Trust (Алекс Брюэр, Бенжамин Брюэр) [2016, триллер, криминал, HDRip-AVC] [AVO] (Вячеслав Котов) piratbit.pw

Доверие через торрент piratbit.pw

Размер: 1.5 GB | Добавлен: 4 года 4 мес. назад | Торрент скачан:20 раз
Скачать  

23-11-2016 20:22 Доверие Скачать торрент  

Доверие / The Trust

«Bad cops make the best criminals»
Год выпуска: 2016
Страна: Великобритания
Жанр: триллер, криминал
Продолжительность: 01:31:43
Перевод: Авторский (одноголосый) [Вячеслав Котов]
Субтитры: нет

Режиссер: Alex Brewer, Бенжамин Брюэр / Benjamin Brewer

В ролях: Николас Кейдж (Jim Stone), Элайджа Вуд (David Waters), Джерри Льюис (Jim's Father), Стивен Уильямс (Cliff), Скай Феррейра (Woman), Кевин Уайзман (Roy), Лиза Гарднер (Handjob Girl), Кристи Беран (Ruby), Джеффри Ховард, Томми Вегас (Prostitute #2), Джей Хайрон (Man in Armoire), Филлип А. Холл (Bidder)

Описание: Парочка коррумпированных полицейских в отделе улик обнаруживает сейф с нарко-деньгами. Решив похитить тайник, они не подозревают, что вступают в игру за собственные жизни.



Качество: HDRip-AVC
Формат: MKV
Видео кодек: AVC
Аудио кодек: AC3
Видео: V_MPEG4/ISO/AVC, 1024x556 (1.85:1), 23.976 fps, ~1900 kbps avg
Аудио: 48 kHz, AC3 Dolby Digital, 3/2 (L,C,R,l,r) + LFE ch, ~448 kbps
General
Unique ID : 187212055855839861604391117032593167612 (0x8CD7BAFD9C913F9AAA83A5BC606214FC)
Complete name : E:\XD\The.Trust.2016.x264.HDRip.Kotov.mkv
Format : Matroska
Format version : Version 4 / Version 2
File size : 1.50 GiB
Duration : 1h 31mn
Overall bit rate : 2 547 Kbps
Encoded date : UTC 2016-11-20 22:25:01
Writing application : mkvmerge v6.0.0 ('Coming Up For Air') built on Jan 20 2013 09:52:00
Writing library : libebml v1.3.0 + libmatroska v1.4.0
Attachements : cover.jpg

Video
ID : 1
Format : AVC
Format/Info : Advanced Video Codec
Format profile : High@L4.1
Format settings, CABAC : Yes
Format settings, ReFrames : 10 frames
Codec ID : V_MPEG4/ISO/AVC
Duration : 1h 31mn
Bit rate : 1 900 Kbps
Width : 1 024 pixels
Height : 556 pixels
Display aspect ratio : 1.85:1
Original display aspect ratio : 1.85:1
Frame rate mode : Constant
Frame rate : 23.976 fps
Standard : Component
Color space : YUV
Chroma subsampling : 4:2:0
Bit depth : 8 bits
Scan type : Progressive
Bits/(Pixel*Frame) : 0.139
Stream size : 1.19 GiB (79%)
Title : x264
Writing library : x264 core 144 r2525
Encoding settings : cabac=1 / ref=10 / deblock=1:-3:-3 / analyse=0x3:0x112 / me=umh / subme=9 / psy=1 / psy_rd=1.00:1.00 / mixed_ref=0 / me_range=16 / chroma_me=1 / trellis=1 / 8x8dct=1 / cqm=0 / deadzone=21,11 / fast_pskip=1 / chroma_qp_offset=-4 / threads=6 / lookahead_threads=1 / sliced_threads=0 / nr=0 / decimate=1 / interlaced=0 / bluray_compat=0 / constrained_intra=0 / bframes=10 / b_pyramid=2 / b_adapt=2 / b_bias=6 / direct=3 / weightb=0 / open_gop=0 / weightp=1 / keyint=239 / keyint_min=23 / scenecut=49 / intra_refresh=0 / rc_lookahead=40 / rc=2pass / mbtree=1 / bitrate=1900 / ratetol=1.0 / qcomp=0.80 / qpmin=4 / qpmax=69 / qpstep=10 / cplxblur=20.0 / qblur=0.5 / vbv_maxrate=4200 / vbv_bufsize=3500 / nal_hrd=none / filler=0 / ip_ratio=1.00 / aq=3:1.00
Default : Yes
Forced : No
Color range : Limited

Audio
ID : 2
Format : AC-3
Format/Info : Audio Coding 3
Mode extension : CM (complete main)
Format settings, Endianness : Big
Codec ID : A_AC3
Duration : 1h 31mn
Bit rate mode : Constant
Bit rate : 448 Kbps
Channel(s) : 6 channels
Channel positions : Front: L C R, Side: L R, LFE
Sampling rate : 48.0 KHz
Compression mode : Lossy
Delay relative to video : -83ms
Stream size : 294 MiB (19%)
Title : AVO В.Котов
Language : Russian
Default : Yes
Forced : No
piratbit.pw



Скачать Доверие через торрент http://i84.fastpic.ru/big/2016/1123/38/371fa60fdf7069419bca84c542113f38.jpg Скачать фильм Доверие через торрент бесплантно в хорошем качестве Описание: Парочка коррумпированных полицейских в отделе улик обнаруживает сейф с нарко-деньгами. Решив похитить тайник, они не ... 10 10 1
Торрент: Зарегистрирован [2016-11-23 20:22] · скачан: 20 раз
Статус: √ проверено
Размер: 1.5 GB
Как cкачать? Как скачать Доверие через торрент | UTorrent

% Раздел Тема Автор DL S | L
T Фильмы 2021 [DVDrip, WEB-DLRip, HDrip] (DUB, MVO) [ 2.04 GB ] Доверие / The Trust [2021 WEB-DLRip-AVC] MVO [AlphaProject] от MediaBit Lithuania Скачать
4 | 0
Фильмы 2016 [DVDrip, WEB-DLRip, HDrip] (DUB, MVO) [ 2.8 GB ] Доверие / The Trust [2016 BDRip-AVC] - AVO - ExKinoRay Enigma2010 Скачать
1 | 0
Фильмы [HD 720p, 1080p] (Хороший звук DUB, MVO) [ 10.19 GB ] Доверие / The Trust [2016 BDRip 1080p] - ; AVO [В. Котов] -Lexx- Скачать
1 | 0
Фильмы 2016 [DVDrip, WEB-DLRip, HDrip] (DUB, MVO) [ 1.42 GB ] Доверие / The Trust [2016 BDRip] - Twi7ter Скачать
1 | 0
Фильмы с авторской озвучкой [ 1.46 GB ] Доверие / The Trust [2016 HDRip] AVO [В. Котов] bober100 Скачать
1 | 0

28-11-2019 20:33  

Отключить всю рекламу на сайте

    Дорогой пользователь! Огромная просьба, поблагодарите релизера, оцените раздачу и оставьте свои комментарий, если Вы скачали Доверие через торрент бесплатно! Внесите свою лепту в развитие PiratBit!
    Комментировать посты могут только пользователи прошедшие не сложную регистрацию
    Показать сообщения:    

    Доверие через торрент
    Скачать бесплатно Доверие
    Доверие скачать торрент
    Доверие смотреть онлайн
    Cкачать фильм Доверие бесплатно
    Доверие скачать торрент в хорошем качестве
    Доверие смотреть онлайн бесплатно в хорошем качестве


    Вы не можете начинать темы
    Вы не можете отвечать на сообщения
    Вы не можете редактировать свои сообщения
    Вы не можете удалять свои сообщения
    Вы не можете голосовать в опросах
    Вы не можете прикреплять файлы к сообщениям
    Вы можете скачивать файлы