1 сезон

1 сезон

iTunes

1

КиноПоиск HD

Кинопоиск HD

iTunes

13

1 сезон

RePack

30

Новинка

ВАЖНО

ИГРА 18+

pack

RePack

MK11
pack

Легкие деньги

RePack

jed

RePack

fifa19

RePack

RDR2

RePack

NEED FOR SPEED™ PAYBACK

4 сезон

9 сезон

Бесстыжие 9 сезон

Все сериалы

все сериалы на PB.wtf

RePack

FAR CRY 5
  
Magnet ссылка

Изнанка долины кукол / Beyond the Valley of the Dolls (Расс Мейер) [1970, драма, комедия, музыка, BDRip 720p by msltel] AVO piratbit.pw

Изнанка долины кукол через торрент piratbit.pw

Размер: 3.9 GB | Добавлен: 4 года 5 мес. назад | Торрент скачан:3 раза
Скачать  

19-11-2016 08:15 Изнанка долины кукол Скачать торрент  

Название: Изнанка долины кукол
Оригинальное название: Beyond the Valley of the Dolls
Год выпуска: 1970
Страна: США
Жанр: драма, комедия, музыка
Продолжительность: 01:49:06
Перевод: авторский

Режиссёр: Расс Мейер

В ролях: Долли Рид, Синтия Майерс, Марсия МакБрум, Джон Лазар, Майкл Блоджет, Дэвид Гуриан, Эди Уильямс, Эрика Гэвин, Филлис Дэвис, Харрисон Пейдж

Описание: Три сладкоголосые певички, устав от пуритански настроенной публики провинциальной Америки, отправляютс в Голливуд, или иначе в «Долину кукол»...



Качество: BDRip 720p Сравнение с исходником
Формат: MKV
Видео: MPEG-4 AVC, 4733 Кбит/с, 1280x540, 23,976 кадра/с
Аудио 1: русский, AC3, 192 kbps, 2 ch, 48 kHz [авторский, Антон Алексеев]
Аудио 2: английский, AC3, 192 kbps, 1 ch, 48 kHz [оригинал]
Субтитры: английские
Общее
Уникальный идентификатор : 251510172474058539993458639415849779711 (0xBD3718E54869621482730331757C01FF)
Полное имя : D:\Video\За пределами долины кукол.1970.BDRip.720p by msltel.mkv
Формат : Matroska
Версия формата : Version 4 / Version 2
Размер файла : 3,90 Гбайт
Продолжительность : 1 ч. 49 м.
Общий поток : 5119 Кбит/сек
Название фильма : Rip by msltel
Дата кодирования : UTC 2016-11-18 05:46:22
Программа кодирования : mkvmerge v8.2.0 ('World of Adventure') 64bit
Библиотека кодирования : libebml v1.3.1 + libmatroska v1.4.2

Видео
Идентификатор : 1
Формат : AVC
Формат/Информация : Advanced Video Codec
Профиль формата : High@L4.1
Параметр CABAC формата : Да
Параметр ReFrames формата : 9 кадров
Идентификатор кодека : V_MPEG4/ISO/AVC
Продолжительность : 1 ч. 49 м.
Битрейт : 4733 Кбит/сек
Ширина : 1280 пикселей
Высота : 540 пикселей
Соотношение сторон : 2,40:1
Режим частоты кадров : Постоянный
Частота кадров : 23,976 (24000/1001) кадра/сек
Цветовое пространство : YUV
Субдискретизация насыщенности : 4:2:0
Битовая глубина : 8 бит
Тип развёртки : Прогрессивная
Бит/(Пиксели*Кадры) : 0.286
Размер потока : 3,61 Гбайт (92%)
Библиотека кодирования : x264 core 146 r2538 121396c
Настройки программы : cabac=1 / ref=9 / deblock=1:-3:-3 / analyse=0x3:0x113 / me=umh / subme=9 / psy=1 / psy_rd=1.00:0.15 / mixed_ref=1 / me_range=32 / chroma_me=1 / trellis=1 / 8x8dct=1 / cqm=0 / deadzone=21,11 / fast_pskip=0 / chroma_qp_offset=-3 / threads=6 / lookahead_threads=1 / sliced_threads=0 / nr=0 / decimate=1 / interlaced=0 / bluray_compat=0 / constrained_intra=0 / bframes=10 / b_pyramid=2 / b_adapt=2 / b_bias=0 / direct=1 / weightb=1 / open_gop=0 / weightp=2 / keyint=230 / keyint_min=23 / scenecut=40 / intra_refresh=0 / rc_lookahead=40 / rc=crf / mbtree=0 / crf=18.6 / qcomp=0.60 / qpmin=0 / qpmax=69 / qpstep=4 / vbv_maxrate=50000 / vbv_bufsize=62500 / crf_max=0.0 / nal_hrd=none / filler=0 / ip_ratio=1.40 / pb_ratio=1.30 / aq=1:1.00
Язык : English
Default : Да
Forced : Нет

Аудио #1
Идентификатор : 2
Формат : AC-3
Формат/Информация : Audio Coding 3
Расширение режима : CM (complete main)
Параметр Endianness формата : Big
Идентификатор кодека : A_AC3
Продолжительность : 1 ч. 49 м.
Вид битрейта : Постоянный
Битрейт : 192 Кбит/сек
Каналы : 2 канала
Расположение каналов : Front: L R
Частота : 48,0 КГц
Частота кадров : 31,250 кадров/сек (1536 spf)
Метод сжатия : С потерями
Размер потока : 150 Мбайт (4%)
Заголовок : AVO (Антон Алексеев)
Язык : Russian
Default : Да
Forced : Нет

Аудио #2
Идентификатор : 3
Формат : AC-3
Формат/Информация : Audio Coding 3
Расширение режима : CM (complete main)
Параметр Endianness формата : Big
Идентификатор кодека : A_AC3
Продолжительность : 1 ч. 49 м.
Вид битрейта : Постоянный
Битрейт : 192 Кбит/сек
Каналы : 1 канал
Расположение каналов : Front: C
Частота : 48,0 КГц
Частота кадров : 31,250 кадров/сек (1536 spf)
Метод сжатия : С потерями
Размер потока : 150 Мбайт (4%)
Заголовок : original
Язык : English
Default : Нет
Forced : Нет

Текст
Идентификатор : 4
Формат : UTF-8
Идентификатор кодека : S_TEXT/UTF8
Идентификатор кодека/Информация : UTF-8 Plain Text
Продолжительность : 1 ч. 43 м.
Битрейт : 61 бит/сек
Count of elements : 1040
Размер потока : 46,9 Кбайт (0%)
Заголовок : английские
Язык : English
Default : Нет
Forced : Нет

МОИ РЕЛИЗЫ
ВКОНТАКТЕ
piratbit.pw



Скачать Изнанка долины кукол через торрент http://s017.radikal.ru/i409/1611/95/c2e74b5a8a01.jpg Скачать фильм Изнанка долины кукол через торрент бесплантно в хорошем качестве Описание: Три сладкоголосые певички, устав от пуритански настроенной публики провинциальной Америки, отправляютс в Голливуд, или иначе в ... 10 10 3
Info! Золотая раздача, скачанное не засчитывается.
Торрент: Зарегистрирован [2016-11-19 08:15] · скачан: 3 раз
Статус: √ проверено
Размер: 3.9 GB
Как cкачать? Как скачать Изнанка долины кукол через торрент | UTorrent

% Раздел Тема Автор DL S | L
Фильмы с авторской озвучкой [ 11.17 GB ] Изнанка долины кукол / Beyond the Valley of the Dolls [1970 музыка BDRip 1080p by msltel] AVO msltel Скачать
1 | 0

28-11-2019 20:33  

Отключить всю рекламу на сайте

    Дорогой пользователь! Огромная просьба, поблагодарите релизера, оцените раздачу и оставьте свои комментарий, если Вы скачали Изнанка долины кукол через торрент бесплатно! Внесите свою лепту в развитие PiratBit!
    Комментировать посты могут только пользователи прошедшие не сложную регистрацию
    Показать сообщения:    

    Изнанка долины кукол через торрент
    Скачать бесплатно Изнанка долины кукол
    Изнанка долины кукол скачать торрент
    Изнанка долины кукол смотреть онлайн
    Cкачать фильм Изнанка долины кукол бесплатно
    Изнанка долины кукол скачать торрент в хорошем качестве
    Изнанка долины кукол смотреть онлайн бесплатно в хорошем качестве


    Вы не можете начинать темы
    Вы не можете отвечать на сообщения
    Вы не можете редактировать свои сообщения
    Вы не можете удалять свои сообщения
    Вы не можете голосовать в опросах
    Вы не можете прикреплять файлы к сообщениям
    Вы можете скачивать файлы