Marvel's Avengers Deluxe Edition (супер цена) 159р. Внимание количество ограничено!!!

2 сезон

iTunes

iTunes

1

iTunes

iTunes

iTunes

WEBRip

iTunes

30
pack

Новость дня

ВАЖНО

!!Акция!!

Alien_RageХит недели

RePack

Horizon Zero Dawn

ИГРА 18+

pack

RePack

jed

!!Акция!!

Alien_Rage

RePack

fifa19

RePack

Assassins Creed: Odyssey

RePack

NEED FOR SPEED™ PAYBACK

4 сезон

9 сезон

Бесстыжие 9 сезон

Все сериалы

все сериалы на PB.wtf

RePack

FAR CRY 5
  

Держи удар, детка (Ара Оганесян) [2016, комедия, мелодрама, WEB-DL 1080p] [Русский] iTunes piratbit.pw

Держи удар, детка через торрент piratbit.pw

Размер: 3.59 GB | Добавлен: 3 года 10 мес. назад | Торрент скачан:816 раз
Скачать  

04-11-2016 07:08 Держи удар, детка Скачать торрент  

Держи удар, детка

Год выпуска: 2016
Страна: Россия
Жанр: комедия, мелодрама
Продолжительность: 01:41:18
Перевод: Не требуется [Русский]
Режиссер: Ара Оганесян
В ролях: Екатерина Владимирова, Михаил Пореченков, Игорь Верник, Ольга Бузова, Настасья Самбурская, Даниил Вахрушев, Виктор Хориняк, Теймураз Тания, Анна Цуканова-Котт, Виталий Гогунский, Юлия Такшина, Константин Крюков
Описание:
Близняшек Свету и Таню внешне отличить не может никто, но на этом их сходство заканчивается. Света - это женственность и стервозность. Она хочет построить карьеру на телевидении. Таня готовится попасть в сборную России по боксу. Тайсон в юбке. Ее жизнь - это тренировки и спортивный режим.
Рейтинг:

Качество: WEB-DL 1080p
Формат: MKV
Видео: AVC, 1920x818 (2.35:1), 4591 kbps, 25 fps, 0,117 bpp
Аудио: русский / AC3 / 2.0 / 48 kHz / 384 kbps / ||
Навигация по главам: есть

Код:

General
Unique ID                                : 210538667343795288730711042813630134009 (0x9E6445BB4712B6048826839850ACB6F9)
Complete name                            : D:\Proba\DePzh1.udaP.detka.2016.O.WEB-DL.1O8Op.mkv
Format                                   : Matroska
Format version                           : Version 2
File size                                : 3.59 GiB
Duration                                 : 1 h 41 min
Overall bit rate                         : 5 077 kb/s
Encoded date                             : UTC 2016-11-03 19:56:09
Writing application                      : mkvmerge v7.8.0 ('River Man') 32bit built on Apr  3 2015 12:11:22
Writing library                          : libebml v1.3.1 + libmatroska v1.4.2

Video
ID                                       : 1
Format                                   : AVC
Format/Info                              : Advanced Video Codec
Format profile                           : High@L4
Format settings, CABAC                   : Yes
Format settings, ReFrames                : 5 frames
Codec ID                                 : V_MPEG4/ISO/AVC
Duration                                 : 1 h 41 min
Bit rate                                 : 4 591 kb/s
Width                                    : 1 920 pixels
Height                                   : 818 pixels
Display aspect ratio                     : 2.35:1
Frame rate mode                          : Constant
Frame rate                               : 25.000 FPS
Color space                              : YUV
Chroma subsampling                       : 4:2:0
Bit depth                                : 8 bits
Scan type                                : Progressive
Bits/(Pixel*Frame)                       : 0.117
Stream size                              : 3.25 GiB (90%)
Language                                 : English
Default                                  : Yes
Forced                                   : No
Color range                              : Limited
Color primaries                          : BT.709
Transfer characteristics                 : BT.709
Matrix coefficients                      : BT.709
Statistics Tags Issue                    : mkvmerge v8.3.0 ('Over the Horizon') 64bit 2016-11-03 18:10:50 / mkvmerge v7.8.0 ('River Man') 32bit built on Apr  3 2015 12:11:22 2016-11-03 19:56:09
FromStats_BitRate                        : 4690607
FromStats_Duration                       : 01:41:18.080000000
FromStats_FrameCount                     : 151952
FromStats_StreamSize                     : 3563736163

Audio
ID                                       : 2
Format                                   : AC-3
Format/Info                              : Audio Coding 3
Mode extension                           : CM (complete main)
Format settings, Endianness              : Big
Codec ID                                 : A_AC3
Duration                                 : 1 h 41 min
Bit rate mode                            : Constant
Bit rate                                 : 384 kb/s
Channel(s)                               : 2 channels
Channel positions                        : Front: L R
Sampling rate                            : 48.0 kHz
Frame rate                               : 31.250 FPS (1536 spf)
Compression mode                         : Lossy
Stream size                              : 278 MiB (8%)
Language                                 : Russian
Default                                  : Yes
Forced                                   : No

Menu
00:00:00.000                             : en:Глава 1
00:05:57.520                             : en:Глава 2
00:12:38.800                             : en:Глава 3
00:17:48.360                             : en:Глава 4
00:24:01.200                             : en:Глава 5
00:29:42.840                             : en:Глава 6
00:34:52.680                             : en:Глава 7
00:40:39.720                             : en:Глава 8
00:46:20.880                             : en:Глава 9
00:52:09.080                             : en:Глава 10
00:58:55.760                             : en:Глава 11
01:05:27.480                             : en:Глава 12
01:10:34.840                             : en:Глава 13
01:15:53.240                             : en:Глава 14
01:23:14.520                             : en:Глава 15
01:29:06.320                             : en:Глава 16

piratbit.pw



Скачать Держи удар, детка через торрент http://i82.fastpic.ru/big/2016/1104/7d/f048a61cb6163acc1ffaf3bcd16dc37d.jpg Скачать фильм Держи удар, детка через торрент бесплантно в хорошем качестве Описание: Близняшек Свету и Таню внешне отличить не может никто, но на этом их сходство заканчивается. Света - это женственность и ... 9.9 10 19
Info! Золотая раздача, скачанное не засчитывается.
Торрент: Зарегистрирован [2016-11-04 07:08] · скачан: 816 раз
Статус: T временная
Размер: 3.59 GB
Как cкачать? Как скачать Держи удар, детка через торрент | qTorrent

% Раздел Тема Автор DL S | L
T Релизы по Парсеру [Игры, Сериалы и Фильмы и другое...] [ 1.46 GB ] Держи удар детка [2016 WEB-DLRip] / Sherif Скачать
1 | 0
T Наши фильмы (HD, WEB-DL 720p, 1080p) [ 3.1 GB ] Держи удар детка [2016 WEB-DL 720p] bober100 Скачать
1 | 0
T Релизы по Парсеру [Игры, Сериалы и Фильмы и другое...] [ 746 MB ] Держи удар детка [2016 WEB-DLRip] / Sherif Скачать
1 | 0

28-11-2019 20:33  

Отключить всю рекламу на сайте

05-11-2016 00:44 Держи удар, детка Скачать торрент  

спс за труды,норм заценим.piratbit.pw



    Дорогой пользователь! Огромная просьба, поблагодарите релизера, оцените раздачу и оставьте свои комментарий, если Вы скачали Держи удар, детка через торрент бесплатно! Внесите свою лепту в развитие PiratBit!
    Комментировать посты могут только пользователи прошедшие не сложную регистрацию
    Показать сообщения:    

    Держи удар, детка через торрент
    Скачать бесплатно Держи удар, детка
    Держи удар, детка скачать торрент
    Держи удар, детка смотреть онлайн
    Cкачать фильм Держи удар, детка бесплатно
    Держи удар, детка скачать торрент в хорошем качестве
    Держи удар, детка смотреть онлайн бесплатно в хорошем качестве


    Вы не можете начинать темы
    Вы не можете отвечать на сообщения
    Вы не можете редактировать свои сообщения
    Вы не можете удалять свои сообщения
    Вы не можете голосовать в опросах
    Вы не можете прикреплять файлы к сообщениям
    Вы можете скачивать файлы