Marvel's Avengers Deluxe Edition (супер цена) 159р. Внимание количество ограничено!!!

2 сезон

iTunes

iTunes

1

iTunes

iTunes

iTunes

WEBRip

iTunes

30
pack

Новость дня

ВАЖНО

!!Акция!!

Alien_RageХит недели

RePack

Horizon Zero Dawn

ИГРА 18+

pack

RePack

jed

!!Акция!!

Alien_Rage

RePack

fifa19

RePack

Assassins Creed: Odyssey

RePack

NEED FOR SPEED™ PAYBACK

4 сезон

9 сезон

Бесстыжие 9 сезон

Все сериалы

все сериалы на PB.wtf

RePack

FAR CRY 5
  

Москва, я терплю тебя (Сергей Аксёнов) [2016 г., драма, мелодрама, комедия, WEB-DL 720p] piratbit.pw

Москва, я терплю тебя через торрент piratbit.pw

Размер: 2.96 GB | Добавлен: 3 года 10 мес. назад | Торрент скачан:492 раза
Скачать  

01-11-2016 19:12 Москва, я терплю тебя Скачать торрент  

Москва, я терплю тебя
Год выпуска: 2016
Страна: Россия
Жанр: драма, мелодрама, комедия
Продолжительность: 01:33:19
Перевод: Не требуется

Режиссер: Сергей Аксёнов

rating

В ролях: Илья Ермолов, Евгений Морозов, Николай Орловский

Описание: Москва. Редкий солнечный день. Александр надеется отдохнуть от рабочей суеты и заняться любимым делом. Однако клиенты требуют встреч, а девушка жаждет похода по магазинам. Вдобавок ко всему, на один день из Гомеля, приезжает бывший одноклассник, который, во что бы то ни стало, хочет выпить с Саней пиво. Да к тому же, срочно требуется помощь ещё одному другу. А тут, вдруг, к одной из клиенток вспыхивает любовь. А приехавший одноклассник внезапно рушит все планы. И всё это за один день. Оказывается, в бешеном водовороте столичной жизни, очень легко потерять себя. Либо наоборот, найти.

Качество: WEB-DL 720p
Формат: MKV
Видео кодек: AVC
Аудио кодек: AC3
Видео: Matroska 1280x540 25.000 fps 4065 kb/s
Аудио: AC3 48.0 kHz 2 ch 384 kb/s
скриншот   скриншот   скриншот   скриншот  

General
Unique ID : 176905261090879225221467981660072953807 (0x8516B6C670AEC535AEDB8959ECFFC7CF)
Complete name : C:\Users\Александр\Desktop\Masskva.Trplu.2O16.O.WEB-DL.72Op_KOSHARA.mkv
Format : Matroska
Format version : Version 2
File size : 2.96 GiB
Duration : 1 h 33 min
Overall bit rate mode : Variable
Overall bit rate : 4 540 kb/s
Encoded date : UTC 2016-10-31 15:46:33
Writing application : mkvmerge v8.3.0 ('Over the Horizon') 64bit
Writing library : libebml v1.3.1 + libmatroska v1.4.2

Video
ID : 1
Format : AVC
Format/Info : Advanced Video Codec
Format profile : High@L3.1
Format settings, CABAC : Yes
Format settings, ReFrames : 6 frames
Codec ID : V_MPEG4/ISO/AVC
Duration : 1 h 33 min
Bit rate mode : Variable
Bit rate : 4 065 kb/s
Maximum bit rate : 4 500 kb/s
Width : 1 280 pixels
Height : 540 pixels
Display aspect ratio : 2.40:1
Frame rate mode : Constant
Frame rate : 25.000 FPS
Standard : Component
Color space : YUV
Chroma subsampling : 4:2:0
Bit depth : 8 bits
Scan type : Progressive
Bits/(Pixel*Frame) : 0.235
Stream size : 2.65 GiB (90%)
Default : Yes
Forced : No
Color range : Limited
Color primaries : BT.709
Transfer characteristics : BT.709
Matrix coefficients : BT.709

Audio
ID : 2
Format : AC-3
Format/Info : Audio Coding 3
Mode extension : CM (complete main)
Format settings, Endianness : Big
Codec ID : A_AC3
Duration : 1 h 33 min
Bit rate mode : Constant
Bit rate : 384 kb/s
Channel(s) : 2 channels
Channel positions : Front: L R
Sampling rate : 48.0 kHz
Frame rate : 31.250 FPS (1536 spf)
Compression mode : Lossy
Stream size : 256 MiB (8%)
Default : Yes
Forced : No

piratbit.pw



Скачать Москва, я терплю тебя через торрент https://st.kp.yandex.net/images/film_iphone/iphone360_911178.jpg Скачать фильм Москва, я терплю тебя через торрент бесплантно в хорошем качестве Описание: Москва. Редкий солнечный день. Александр надеется отдохнуть от рабочей суеты и заняться любимым делом. Однако клиенты требуют ... 8.9 10 13
Торрент: Зарегистрирован [2016-11-01 19:12] · скачан: 492 раз
Статус: T временная
Размер: 2.96 GB
Как cкачать? Как скачать Москва, я терплю тебя через торрент | qTorrent

% Раздел Тема Автор DL S | L
Наши новые фильмы 2016 [ 1.45 GB ] Москва я терплю тебя [2016 WEB-DLRip] coc900 Скачать
1 | 0

28-11-2019 20:33  

Отключить всю рекламу на сайте

01-11-2016 21:13 Москва, я терплю тебя Скачать торрент  

8.4 у русского кина ! piratbit.pw



02-11-2016 06:37 Москва, я терплю тебя Скачать торрент  

JUD писал(а):

8.4 у русского кина !

Накрутка идёт, благо бабки из фонда развития российского кино можно использовать.
nn99nn,
О млин дожили. Скажи мне почему в рос. фильме присутствует реклама? Понятно что за релиз озвучки от сторонних команд забугорного фильма часто платит рекламодатель. А здесь с какого будуна? Только без трендежа про всякую чушь о недоедающих неграх подпольного бизнеса.piratbit.pw



04-11-2016 20:38 Москва, я терплю тебя Скачать торрент  

Классное кино! Получил удовольствие от просмотра!piratbit.pw



    Дорогой пользователь! Огромная просьба, поблагодарите релизера, оцените раздачу и оставьте свои комментарий, если Вы скачали Москва, я терплю тебя через торрент бесплатно! Внесите свою лепту в развитие PiratBit!
    Комментировать посты могут только пользователи прошедшие не сложную регистрацию
    Показать сообщения:    

    Москва, я терплю тебя через торрент
    Скачать бесплатно Москва, я терплю тебя
    Москва, я терплю тебя скачать торрент
    Москва, я терплю тебя смотреть онлайн
    Cкачать фильм Москва, я терплю тебя бесплатно
    Москва, я терплю тебя скачать торрент в хорошем качестве
    Москва, я терплю тебя смотреть онлайн бесплатно в хорошем качестве


    Вы не можете начинать темы
    Вы не можете отвечать на сообщения
    Вы не можете редактировать свои сообщения
    Вы не можете удалять свои сообщения
    Вы не можете голосовать в опросах
    Вы не можете прикреплять файлы к сообщениям
    Вы можете скачивать файлы