1 сезон

1 сезон

iTunes

1

КиноПоиск HD

Кинопоиск HD

iTunes

13

1 сезон

RePack

30

Ultimate

ВАЖНО

ИГРА 18+

pack

RePack

MK11
pack

Легкие деньги

RePack

jed

RePack

fifa19

RePack

RDR2

RePack

NEED FOR SPEED™ PAYBACK

4 сезон

9 сезон

Бесстыжие 9 сезон

Все сериалы

все сериалы на PB.wtf

RePack

FAR CRY 5
  
Magnet ссылка

Химия тела 3: Точка соблазна / Body Chemistry III: Point of Seduction (Джим Уайнорски / Jim Wynorski) [1994 г., Триллер, драма, эротика, DVDRip by _Один_777] AVO (A.Гаврилов) piratbit.pw

Химия тела 3: Точка соблазна через торрент piratbit.pw

Качают: 1 [ 0 KB/s ]
Размер: 749 MB | Добавлен: 4 года 5 мес. назад | Торрент скачан:36 раз
Скачать  

30-10-2016 17:05 Химия тела 3: Точка соблазна Скачать торрент  

Химия тела 3: Точка соблазна / Body Chemistry III: Point of Seduction
«Один мужчина. Две женщины. Быть беде»

Год выпуска: 1994
Страна: США / Concorde-New Horizons
Жанр: Триллер, драма, эротика
Продолжительность: 01:23:36
Перевод: Авторский (одноголосый закадровый) A.Гаврилов
Cубтитры: нет

Режиссер: Джим Уайнорски / Jim Wynorski

В ролях: Эндрю Стивенс, Морган Фэйрчайлд, Шэри Шаттак, Чик Веннера, Роберт Форстер, Стелла Стивенс, Делия Шеппард, Джон Линдстрём, Антония Дориан, Бекки ЛеБо...

Описание: Доктор Клер Арчер, изрядно «нахимичившая» в двух предыдущих частях «Химии тела», вновь устраивается на работу. Ее автобиографический, увлекательно написанный роман заинтересовал телевизионного продюсера Элана Клея.
Попав под чары доктора Клер, Элан с ужасом начинает понимать, что для нее секс и насилие - понятия одного порядка…


Сэмпл: http://sendfile.su/1278875


Качество: DVDRip
Формат: AVI
Видео кодек: XviD
Аудио кодек: MP3
Видео: 640x480 (1.33:1), 25 fps, XviD build 73 ~1115 kbps avg, 0.14 bit/pixel
Аудио: 48 kHz, MPEG Layer 3, 2 ch, ~128.00 kbps avg
Общее
Полное имя : C:\Himija.tela.III.1994.DVDRip.740.[Один 777].avi
Формат : AVI
Формат/Информация : Audio Video Interleave
Размер файла : 749 Мбайт
Продолжительность : 1 ч. 23 м.
Общий поток : 1253 Кбит/сек
Программа кодирования : VirtualDubMod 1.5.10.3 | www.virtualdub-fr.org || (build 2550/release)
Библиотека кодирования : VirtualDubMod build 2550/release

Видео
Идентификатор : 0
Формат : MPEG-4 Visual
Профиль формата : Advanced Simple@L5
Параметр BVOP формата : 1
Параметр QPel формата : Нет
Параметр GMC формата : Без точки перехода
Параметр матрицы формата : Default (H.263)
Идентификатор кодека : XVID
Идентификатор кодека/Подсказка : XviD
Продолжительность : 1 ч. 23 м.
Битрейт : 1116 Кбит/сек
Ширина : 640 пикселей
Высота : 480 пикселей
Соотношение сторон : 4:3
Частота кадров : 25,000 кадров/сек
Цветовое пространство : YUV
Субдискретизация насыщенности : 4:2:0
Битовая глубина : 8 бит
Тип развёртки : Прогрессивная
Метод сжатия : С потерями
Бит/(Пиксели*Кадры) : 0.145
Размер потока : 667 Мбайт (89%)
Библиотека кодирования : XviD 73

Аудио
Идентификатор : 1
Формат : MPEG Audio
Версия формата : Version 1
Профиль формата : Layer 3
Идентификатор кодека : 55
Идентификатор кодека/Подсказка : MP3
Продолжительность : 1 ч. 23 м.
Вид битрейта : Постоянный
Битрейт : 128 Кбит/сек
Каналы : 2 канала
Частота : 48,0 КГц
Метод сжатия : С потерями
Размер потока : 76,3 Мбайт (10%)
Выравнивание : Соединение по промежуткам
Продолжительность промежутка : 40 мс. (1,00 видеокадр)
Время предзагрузки промежутка : 504 мс.
Библиотека кодирования : LAME3.99r
Настройки программы : -m s -V 4 -q 2 -lowpass 17 -b 128
piratbit.pw



Скачать Химия тела 3: Точка соблазна через торрент http://i2.imageban.ru/out/2016/10/30/13c67f55dcad910ce72a2670aeb46075.jpg Скачать фильм Химия тела 3: Точка соблазна через торрент бесплантно в хорошем качестве Описание: Доктор Клер Арчер, изрядно «нахимичившая» в двух предыдущих частях «Химии тела», вновь устраивается на работу. Ее ... 10 10 4
Info! Золотая раздача, скачанное не засчитывается.
Торрент: Зарегистрирован [2016-10-30 17:05] · скачан: 36 раз
Статус: √ проверено
Размер: 749 MB
Как cкачать? Как скачать Химия тела 3: Точка соблазна через торрент | UTorrent

28-11-2019 20:33  

Отключить всю рекламу на сайте

    Дорогой пользователь! Огромная просьба, поблагодарите релизера, оцените раздачу и оставьте свои комментарий, если Вы скачали Химия тела 3: Точка соблазна через торрент бесплатно! Внесите свою лепту в развитие PiratBit!
    Комментировать посты могут только пользователи прошедшие не сложную регистрацию
    Показать сообщения:    

    Химия тела 3: Точка соблазна через торрент
    Скачать бесплатно Химия тела 3: Точка соблазна
    Химия тела 3: Точка соблазна скачать торрент
    Химия тела 3: Точка соблазна смотреть онлайн
    Cкачать фильм Химия тела 3: Точка соблазна бесплатно
    Химия тела 3: Точка соблазна скачать торрент в хорошем качестве
    Химия тела 3: Точка соблазна смотреть онлайн бесплатно в хорошем качестве


    Вы не можете начинать темы
    Вы не можете отвечать на сообщения
    Вы не можете редактировать свои сообщения
    Вы не можете удалять свои сообщения
    Вы не можете голосовать в опросах
    Вы не можете прикреплять файлы к сообщениям
    Вы можете скачивать файлы