1 сезон

1 сезон

iTunes

1

КиноПоиск HD

Кинопоиск HD

iTunes

13

1 сезон

RePack

30

Новинка

ВАЖНО

ИГРА 18+

pack

RePack

MK11
pack

Легкие деньги

RePack

jed

RePack

fifa19

RePack

RDR2

RePack

NEED FOR SPEED™ PAYBACK

4 сезон

9 сезон

Бесстыжие 9 сезон

Все сериалы

все сериалы на PB.wtf

RePack

FAR CRY 5
  
Magnet ссылка

Химия тела 2: Голос незнакомца / Body Chemistry II: Voice of a Stranger (Адам Саймон / Adam Simon) [1992 г., Триллер, драма, DVDRip by _Один_777] AVO (Михаил Иванов) piratbit.pw

Химия тела 2: Голос незнакомца через торрент piratbit.pw

Размер: 750 MB | Добавлен: 4 года 5 мес. назад | Торрент скачан:36 раз
Скачать  

30-10-2016 17:03 Химия тела 2: Голос незнакомца Скачать торрент  

Химия тела 2: Голос незнакомца / Body Chemistry II: Voice of a Stranger
«Она не узнает наслаждения, пока он не узнает боли»

Год выпуска: 1992
Страна: США / Concorde-New Horizons
Жанр: Триллер, драма
Продолжительность: 01:23:41
Перевод: Авторский (одноголосый закадровый) Михаил Иванов
Cубтитры: нет

Режиссер: Адам Саймон / Adam Simon

В ролях: Грегори Харрисон, Лиза Пешиа, Мортон Дауни мл., Робин Райкер, Клинт Ховард, Джон Лэндис, Джереми Пивен, Роберт Бичер, Дэвид Синайко, Фрэнк Новак...

Описание: Бывший полицейский Грегори Хэррисон слушает по радио передачу, которую ведет очаровательная психолог Лиза Пешиа. Далее все идет по схеме: он безумно влюбляется в нее, но его жизни начинает угрожать смертельная опасность.


Сэмпл: http://sendfile.su/1278826


Качество: DVDRip
Формат: AVI
Видео кодек: XviD
Аудио кодек: MP3
Видео: 640x480 (1.33:1), 25 fps, XviD build 73 ~1114 kbps avg, 0.14 bit/pixel
Аудио: 48 kHz, MPEG Layer 3, 2 ch, ~128.00 kbps avg
Общее
Полное имя : C:\Himija.tela.II.1992.DVDRip.740.[Один 777].avi
Формат : AVI
Формат/Информация : Audio Video Interleave
Размер файла : 750 Мбайт
Продолжительность : 1 ч. 23 м.
Общий поток : 1253 Кбит/сек
Программа кодирования : VirtualDubMod 1.5.10.3 | www.virtualdub-fr.org || (build 2550/release)
Библиотека кодирования : VirtualDubMod build 2550/release

Видео
Идентификатор : 0
Формат : MPEG-4 Visual
Профиль формата : Advanced Simple@L5
Параметр BVOP формата : 1
Параметр QPel формата : Нет
Параметр GMC формата : Без точки перехода
Параметр матрицы формата : Default (H.263)
Идентификатор кодека : XVID
Идентификатор кодека/Подсказка : XviD
Продолжительность : 1 ч. 23 м.
Битрейт : 1115 Кбит/сек
Ширина : 640 пикселей
Высота : 480 пикселей
Соотношение сторон : 4:3
Частота кадров : 25,000 кадров/сек
Цветовое пространство : YUV
Субдискретизация насыщенности : 4:2:0
Битовая глубина : 8 бит
Тип развёртки : Прогрессивная
Метод сжатия : С потерями
Бит/(Пиксели*Кадры) : 0.145
Размер потока : 667 Мбайт (89%)
Библиотека кодирования : XviD 73

Аудио
Идентификатор : 1
Формат : MPEG Audio
Версия формата : Version 1
Профиль формата : Layer 3
Идентификатор кодека : 55
Идентификатор кодека/Подсказка : MP3
Продолжительность : 1 ч. 23 м.
Вид битрейта : Постоянный
Битрейт : 128 Кбит/сек
Каналы : 2 канала
Частота : 48,0 КГц
Метод сжатия : С потерями
Размер потока : 76,6 Мбайт (10%)
Выравнивание : Соединение по промежуткам
Продолжительность промежутка : 40 мс. (1,00 видеокадр)
Время предзагрузки промежутка : 504 мс.
Библиотека кодирования : LAME3.99r
Настройки программы : -m s -V 4 -q 2 -lowpass 17 -b 128
piratbit.pw



Скачать Химия тела 2: Голос незнакомца через торрент http://i2.imageban.ru/out/2016/10/30/951ac4ec4cc8b8013ab1219f17009f21.jpg Скачать фильм Химия тела 2: Голос незнакомца через торрент бесплантно в хорошем качестве Описание: Бывший полицейский Грегори Хэррисон слушает по радио передачу, которую ведет очаровательная психолог Лиза Пешиа. Далее все идет ... 10 10 2
Info! Золотая раздача, скачанное не засчитывается.
Торрент: Зарегистрирован [2016-10-30 17:03] · скачан: 36 раз
Статус: √ проверено
Размер: 750 MB
Как cкачать? Как скачать Химия тела 2: Голос незнакомца через торрент | UTorrent

28-11-2019 20:33  

Отключить всю рекламу на сайте

    Дорогой пользователь! Огромная просьба, поблагодарите релизера, оцените раздачу и оставьте свои комментарий, если Вы скачали Химия тела 2: Голос незнакомца через торрент бесплатно! Внесите свою лепту в развитие PiratBit!
    Комментировать посты могут только пользователи прошедшие не сложную регистрацию
    Показать сообщения:    

    Химия тела 2: Голос незнакомца через торрент
    Скачать бесплатно Химия тела 2: Голос незнакомца
    Химия тела 2: Голос незнакомца скачать торрент
    Химия тела 2: Голос незнакомца смотреть онлайн
    Cкачать фильм Химия тела 2: Голос незнакомца бесплатно
    Химия тела 2: Голос незнакомца скачать торрент в хорошем качестве
    Химия тела 2: Голос незнакомца смотреть онлайн бесплатно в хорошем качестве


    Вы не можете начинать темы
    Вы не можете отвечать на сообщения
    Вы не можете редактировать свои сообщения
    Вы не можете удалять свои сообщения
    Вы не можете голосовать в опросах
    Вы не можете прикреплять файлы к сообщениям
    Вы можете скачивать файлы