1 сезон

1 сезон

iTunes

1

КиноПоиск HD

Кинопоиск HD

iTunes

13

1 сезон

RePack

30

Ultimate

ВАЖНО

ИГРА 18+

pack

RePack

MK11
pack

Легкие деньги

RePack

jed

RePack

fifa19

RePack

RDR2

RePack

NEED FOR SPEED™ PAYBACK

4 сезон

9 сезон

Бесстыжие 9 сезон

Все сериалы

все сериалы на PB.wtf

RePack

FAR CRY 5
  
Magnet ссылка

Химия тела / Body Chemistry (Кристин Питерсон / Kristine Peterson) [1990 г., Триллер, драма, эротика, DVDRip by _Один_777] AVO (Михаил Иванов) piratbit.pw

Химия тела через торрент piratbit.pw

Размер: 750 MB | Добавлен: 4 года 5 мес. назад | Торрент скачан:39 раз
Скачать  

30-10-2016 17:01 Химия тела Скачать торрент  

Химия тела / Body Chemistry
«Химия может быть права. . . но последствия могут быть убийственны»

Год выпуска: 1990
Страна: США / Concorde-New Horizons, Pacific Trust
Жанр: Триллер, драма, эротика
Продолжительность: 01:24:38
Перевод: Авторский (одноголосый закадровый) Михаил Иванов
Cубтитры: нет

Режиссер: Кристин Питерсон / Kristine Peterson

В ролях: Марк Сингер, Лиза Пешиа, Мэри Кросби, Дэвид Кэген, Дорин Олдермен, Джозеф Кампанелла, Ронда Олдрич, Элизабет Харнетт...

Описание: Директор исследовательской лаборатории сексуальных проблем соблазнен своей преисполненной энтузиазма коллегой, которая не понимает, когда ей говорят «нет».


Сэмпл: http://sendfile.su/1278835


Качество: DVDRip
Формат: AVI
Видео кодек: XviD
Аудио кодек: MP3
Видео: 640x480 (1.33:1), 25 fps, XviD build 73 ~1100 kbps avg, 0.14 bit/pixel
Аудио: 48 kHz, MPEG Layer 3, 2 ch, ~128.00 kbps avg
Общее
Полное имя : C:\Users\ACER\Desktop\Himija.tela.1990.DVDRip.740.[Один 777].avi
Формат : AVI
Формат/Информация : Audio Video Interleave
Размер файла : 750 Мбайт
Продолжительность : 1 ч. 24 м.
Общий поток : 1238 Кбит/сек
Программа кодирования : VirtualDubMod 1.5.10.3 | www.virtualdub-fr.org || (build 2550/release)
Библиотека кодирования : VirtualDubMod build 2550/release

Видео
Идентификатор : 0
Формат : MPEG-4 Visual
Профиль формата : Advanced Simple@L5
Параметр BVOP формата : 1
Параметр QPel формата : Нет
Параметр GMC формата : Без точки перехода
Параметр матрицы формата : Default (H.263)
Идентификатор кодека : XVID
Идентификатор кодека/Подсказка : XviD
Продолжительность : 1 ч. 24 м.
Битрейт : 1101 Кбит/сек
Ширина : 640 пикселей
Высота : 480 пикселей
Соотношение сторон : 4:3
Частота кадров : 25,000 кадров/сек
Цветовое пространство : YUV
Субдискретизация насыщенности : 4:2:0
Битовая глубина : 8 бит
Тип развёртки : Прогрессивная
Метод сжатия : С потерями
Бит/(Пиксели*Кадры) : 0.143
Размер потока : 666 Мбайт (89%)
Библиотека кодирования : XviD 73

Аудио
Идентификатор : 1
Формат : MPEG Audio
Версия формата : Version 1
Профиль формата : Layer 3
Идентификатор кодека : 55
Идентификатор кодека/Подсказка : MP3
Продолжительность : 1 ч. 24 м.
Вид битрейта : Постоянный
Битрейт : 128 Кбит/сек
Каналы : 2 канала
Частота : 48,0 КГц
Метод сжатия : С потерями
Размер потока : 77,5 Мбайт (10%)
Выравнивание : Соединение по промежуткам
Продолжительность промежутка : 40 мс. (1,00 видеокадр)
Время предзагрузки промежутка : 504 мс.
Библиотека кодирования : LAME3.99r
Настройки программы : -m s -V 4 -q 2 -lowpass 17 -b 128
piratbit.pw



Скачать Химия тела через торрент http://i6.imageban.ru/out/2016/10/30/26688593f98376167201460188bd43c9.jpg Скачать фильм Химия тела через торрент бесплантно в хорошем качестве Описание: Директор исследовательской лаборатории сексуальных проблем соблазнен своей преисполненной энтузиазма коллегой, которая не ... 10 10 4
Info! Золотая раздача, скачанное не засчитывается.
Торрент: Зарегистрирован [2016-10-30 17:01] · скачан: 39 раз
Статус: √ проверено
Размер: 750 MB
Как cкачать? Как скачать Химия тела через торрент | UTorrent

% Раздел Тема Автор DL S | L
Фильмы без перевода [ 750 MB ] Химия тела 4: Полное обнажение / Body Chemistry 4: Full Exposure [1995 эротика DVDRip by _Один_777] Eng Один 777 Скачать
1 | 0
Фильмы с авторской озвучкой [ 749 MB ] Химия тела 3: Точка соблазна / Body Chemistry III: Point of Seduction [1994 эротика DVDRip by _Один_777] AVO Один 777 Скачать
1 | 0
Фильмы с авторской озвучкой [ 750 MB ] Химия тела 2: Голос незнакомца / Body Chemistry II: Voice of a Stranger [1992 DVDRip by _Один_777] AVO Один 777 Скачать
1 | 0

28-11-2019 20:33  

Отключить всю рекламу на сайте

    Дорогой пользователь! Огромная просьба, поблагодарите релизера, оцените раздачу и оставьте свои комментарий, если Вы скачали Химия тела через торрент бесплатно! Внесите свою лепту в развитие PiratBit!
    Комментировать посты могут только пользователи прошедшие не сложную регистрацию
    Показать сообщения:    

    Химия тела через торрент
    Скачать бесплатно Химия тела
    Химия тела скачать торрент
    Химия тела смотреть онлайн
    Cкачать фильм Химия тела бесплатно
    Химия тела скачать торрент в хорошем качестве
    Химия тела смотреть онлайн бесплатно в хорошем качестве


    Вы не можете начинать темы
    Вы не можете отвечать на сообщения
    Вы не можете редактировать свои сообщения
    Вы не можете удалять свои сообщения
    Вы не можете голосовать в опросах
    Вы не можете прикреплять файлы к сообщениям
    Вы можете скачивать файлы