1 сезон

1 сезон

iTunes

1

КиноПоиск HD

Кинопоиск HD

iTunes

13

1 сезон

RePack

30

Новинка

ВАЖНО

ИГРА 18+

pack

RePack

MK11
pack

Легкие деньги

RePack

jed

RePack

fifa19

RePack

RDR2

RePack

NEED FOR SPEED™ PAYBACK

4 сезон

9 сезон

Бесстыжие 9 сезон

Все сериалы

все сериалы на PB.wtf

RePack

FAR CRY 5
  
Magnet ссылка

Смеющийся полицейский / The Laughing Policeman (Стюарт Розенберг) [1973 г., триллер, драма, криминал, HDRip] AVO piratbit.pw

Смеющийся полицейский через торрент piratbit.pw

Размер: 1.58 GB | Добавлен: 4 года 5 мес. назад | Торрент скачан:9 раз
Скачать  

30-10-2016 16:30 Смеющийся полицейский Скачать торрент  

Смеющийся полицейский / The Laughing Policeman
Год выпуска: 1973
Страна: США
Жанр: триллер, драма, криминал
Продолжительность: 01:51:53
Перевод: Авторский (Севастьянов)

Режиссер: Стюарт Розенберг

Премьера в мире: 20 декабря 1973

rating

В ролях: Уолтер Мэттау, Брюс Дерн, Луис Госсетт мл., Альберт Полсен, Энтони Зербе, Вэл Эйвери, Кэти Ли Кросби, Марио Галло, Джоанна Кэссиди, Ширли Баллард

Описание: Одной из жертв массового убийства в Сан-Франциско оказывает полицейский Эванс. Отдел убийств пытается раскрыть преступление, проверяя личности погибших.

Качество: HDRip
Формат: AVI
Видео кодек: XviD
Аудио кодек: AC3
Видео: XviD, 1824 Кбит/с, 704x384, 23.976 кадр/с
Аудио#1: AC3, 2 ch, 192 Кбит/с, 48 kHz
Релиз от: Koenig
Общее
Полное имя : The.Laughing.Policeman.1973.HDRip.avi
Формат : AVI
Формат/Информация : Audio Video Interleave
Размер файла : 1,58 Гбайт
Продолжительность : 1 ч. 51 м.
Общий поток : 2025 Кбит/сек
Программа кодирования : VirtualDubMod 1.5.10.2 (build 2540/release)
Библиотека кодирования : VirtualDubMod build 2540/release

Видео
Идентификатор : 0
Формат : MPEG-4 Visual
Профиль формата : Advanced Simple@L5
Параметр BVOP формата : 1
Параметр QPel формата : Нет
Параметр GMC формата : Без точки перехода
Параметр матрицы формата : Выборочная
Идентификатор кодека : XVID
Идентификатор кодека/Подсказка : XviD
Продолжительность : 1 ч. 51 м.
Битрейт : 1824 Кбит/сек
Ширина : 704 пикселя
Высота : 384 пикселя
Соотношение сторон : 1,85:1
Частота кадров : 23,976 (23976/1000) кадра/сек
Цветовое пространство : YUV
Субдискретизация насыщенности : 4:2:0
Битовая глубина : 8 бит
Тип развёртки : Прогрессивная
Метод сжатия : С потерями
Бит/(Пиксели*Кадры) : 0.281
Размер потока : 1,43 Гбайт (90%)
Библиотека кодирования : XviD 73

Аудио
Идентификатор : 1
Формат : AC-3
Формат/Информация : Audio Coding 3
Расширение режима : CM (complete main)
Параметр Endianness формата : Big
Идентификатор кодека : 2000
Продолжительность : 1 ч. 51 м.
Вид битрейта : Постоянный
Битрейт : 192 Кбит/сек
Каналы : 2 канала
Расположение каналов : Front: L R
Частота : 48,0 КГц
Частота кадров : 31,250 кадров/сек (1536 spf)
Метод сжатия : С потерями
Размер потока : 154 Мбайт (9%)
Выравнивание : Разделение по промежуткам
Продолжительность промежутка : 42 мс. (1,00 видеокадр)
Время предзагрузки промежутка : 500 мс.

piratbit.pw



Скачать Смеющийся полицейский через торрент https://pic1.kartinco.top/images/11/882os.jpg Скачать фильм Смеющийся полицейский через торрент бесплантно в хорошем качестве Описание: Одной из жертв массового убийства в Сан-Франциско оказывает полицейский Эванс. Отдел убийств пытается раскрыть преступление, ... 5 10 1
Торрент: Зарегистрирован [2016-10-30 16:30] · скачан: 9 раз
Статус: √ проверено
Размер: 1.58 GB
Как cкачать? Как скачать Смеющийся полицейский через торрент | UTorrent

28-11-2019 20:33  

Отключить всю рекламу на сайте

    Дорогой пользователь! Огромная просьба, поблагодарите релизера, оцените раздачу и оставьте свои комментарий, если Вы скачали Смеющийся полицейский через торрент бесплатно! Внесите свою лепту в развитие PiratBit!
    Комментировать посты могут только пользователи прошедшие не сложную регистрацию
    Показать сообщения:    

    Смеющийся полицейский через торрент
    Скачать бесплатно Смеющийся полицейский
    Смеющийся полицейский скачать торрент
    Смеющийся полицейский смотреть онлайн
    Cкачать фильм Смеющийся полицейский бесплатно
    Смеющийся полицейский скачать торрент в хорошем качестве
    Смеющийся полицейский смотреть онлайн бесплатно в хорошем качестве


    Вы не можете начинать темы
    Вы не можете отвечать на сообщения
    Вы не можете редактировать свои сообщения
    Вы не можете удалять свои сообщения
    Вы не можете голосовать в опросах
    Вы не можете прикреплять файлы к сообщениям
    Вы можете скачивать файлы