1 сезон

1 сезон

iTunes

1

КиноПоиск HD

Кинопоиск HD

iTunes

13

1 сезон

RePack

30

Новинка

ВАЖНО

ИГРА 18+

pack

RePack

MK11
pack

Легкие деньги

RePack

jed

RePack

fifa19

RePack

RDR2

RePack

NEED FOR SPEED™ PAYBACK

4 сезон

9 сезон

Бесстыжие 9 сезон

Все сериалы

все сериалы на PB.wtf

RePack

FAR CRY 5
  
Magnet ссылка

Железное сердце / Ironheart (Роберт Клауз ) [1992, боевик, драма, криминал, BDRip 1080p] 2х AVO piratbit.pw

Железное сердце через торрент piratbit.pw

Размер: 6.8 GB | Добавлен: 4 года 6 мес. назад | Торрент скачан:2 раза
Скачать  

20-10-2016 04:06 Железное сердце Скачать торрент  

Железное сердце / Ironheart

Год выпуска: 1992
Страна: Корея Южная, США
Жанр: боевик, драма, криминал

Продолжительность: 01:32:33
Перевод:
Авторский (одноголосый) Сербин
Авторский (одноголосый) Гаврилов
Перевод отсутствует [Оригинал]
Режиссер: Роберт Клауз
В ролях: Бриттон К. Ли (John Keem), Боло Йенг (Ice), Ричард Нортон (Milverstead), Карман Крушке (Kristi), Джо Айви (Captain Kronious), Мэган Хьюз (Cindy), Роб Бакмастер (Stevo), Пэт Паттерсон (Simmons), Эдейр Чаппель (Irene), Дэвид Маунтин (Douglas), Кристал Ховард (Erika), Джон Уорд (Blake)
Описание:
Отныне необходимо запомнить, что железные сердца - у офицеров лос-анджелесской полиции, даже если они выполняют особое задание в Портлэнде. Одного из них зовут Джон Ким. Его бывшего напарника Дагласа убили. А подружка бывшего напарника - Синди Кэйн - так и вовсе исчезла. Джон Ким приезжает в Портлэнд и, окинув свежим глазом поле действий, начинает быстро-быстро раскручивать грязное дело.
Рейтинг:

MPAA: R - Лицам до 17 лет обязательно присутствие взрослого
Качество: BDRip 1080p
Формат: MKV
Видео: AVC, 1920x1040 (1.85:1), 9692 kbps, 23,976 fps, 0,202 bpp
Аудио №1: русский / MP3 / 2.0 / 44 kHz / 192 kbps / |Сербин|
Аудио №2: русский / MP3 / 2.0 / 44 kHz / 192 kbps / |Гаврилов|
Аудио №3: английский / AC3 / 5.1 / 48 kHz / 448 kbps /
Навигация по главам: есть

General
Unique ID : 188086713419553541117886779376765174257 (0x8D802EF021901196AB58CBF0CC0F01F1)
Complete name : D:\Proba\Ironheart.1992.REMASTERED.1080p.BluRay.x264-UNVEiL\ironheart.1992.remastered.1080p.mkv
Format : Matroska
Format version : Version 4 / Version 2
File size : 6.80 GiB
Duration : 1 h 32 min
Overall bit rate : 10.5 Mb/s
Encoded date : UTC 2016-10-19 16:03:12
Writing application : mkvmerge v9.5.0 ('Quiet Fire') 64bit
Writing library : libebml v1.3.4 + libmatroska v1.4.5

Video
ID : 1
Format : AVC
Format/Info : Advanced Video Codec
Format profile : High@L4.1
Format settings, CABAC : Yes
Format settings, ReFrames : 4 frames
Codec ID : V_MPEG4/ISO/AVC
Duration : 1 h 32 min
Bit rate : 9 692 kb/s
Width : 1 920 pixels
Height : 1 040 pixels
Display aspect ratio : 1.85:1
Frame rate mode : Constant
Frame rate : 23.976 (24000/1001) FPS
Color space : YUV
Chroma subsampling : 4:2:0
Bit depth : 8 bits
Scan type : Progressive
Bits/(Pixel*Frame) : 0.202
Stream size : 6.27 GiB (92%)
Writing library : x264 core 148 r2638 7599210
Encoding settings : cabac=1 / ref=4 / deblock=1:-2:-2 / analyse=0x3:0x113 / me=umh / subme=8 / psy=1 / psy_rd=1.00:0.00 / mixed_ref=1 / me_range=16 / chroma_me=1 / trellis=1 / 8x8dct=1 / cqm=0 / deadzone=21,11 / fast_pskip=1 / chroma_qp_offset=-2 / threads=12 / lookahead_threads=2 / sliced_threads=0 / nr=0 / decimate=1 / interlaced=0 / bluray_compat=0 / constrained_intra=0 / bframes=3 / b_pyramid=2 / b_adapt=2 / b_bias=0 / direct=3 / weightb=1 / open_gop=0 / weightp=2 / keyint=240 / keyint_min=24 / scenecut=40 / intra_refresh=0 / rc_lookahead=50 / rc=2pass / mbtree=1 / bitrate=9692 / ratetol=1.0 / qcomp=0.60 / qpmin=0 / qpmax=69 / qpstep=4 / cplxblur=20.0 / qblur=0.5 / ip_ratio=1.40 / aq=1:1.00
Language : English
Default : Yes
Forced : No

Audio #1
ID : 2
Format : MPEG Audio
Format version : Version 1
Format profile : Layer 3
Mode : Joint stereo
Mode extension : MS Stereo
Codec ID : A_MPEG/L3
Codec ID/Hint : MP3
Duration : 1 h 32 min
Bit rate mode : Constant
Bit rate : 192 kb/s
Channel(s) : 2 channels
Sampling rate : 44.1 kHz
Frame rate : 38.281 FPS (1152 spf)
Compression mode : Lossy
Delay relative to video : 11 s 0 ms
Stream size : 127 MiB (2%)
Language : Russian
Default : Yes
Forced : No

Audio #2
ID : 3
Format : MPEG Audio
Format version : Version 1
Format profile : Layer 3
Mode : Joint stereo
Mode extension : MS Stereo
Codec ID : A_MPEG/L3
Codec ID/Hint : MP3
Duration : 1 h 32 min
Bit rate mode : Constant
Bit rate : 192 kb/s
Channel(s) : 2 channels
Sampling rate : 44.1 kHz
Frame rate : 38.281 FPS (1152 spf)
Compression mode : Lossy
Delay relative to video : 11 s 0 ms
Stream size : 127 MiB (2%)
Language : Russian
Default : No
Forced : No

Audio #3
ID : 4
Format : AC-3
Format/Info : Audio Coding 3
Mode extension : CM (complete main)
Format settings, Endianness : Big
Codec ID : A_AC3
Duration : 1 h 32 min
Bit rate mode : Constant
Bit rate : 448 kb/s
Channel(s) : 6 channels
Channel positions : Front: L C R, Side: L R, LFE
Sampling rate : 48.0 kHz
Frame rate : 31.250 FPS (1536 spf)
Compression mode : Lossy
Stream size : 297 MiB (4%)
Language : English
Default : No
Forced : No

Menu
00:00:00.000 : en:00:00:00.000
00:00:00.375 : en:00:00:00.375
00:14:40.463 : en:00:14:40.463
00:28:50.479 : en:00:28:50.479
00:45:29.518 : en:00:45:29.518
01:00:15.862 : en:01:00:15.862
01:09:18.112 : en:01:09:18.112
01:19:28.764 : en:01:19:28.764
01:30:36.640 : en:01:30:36.640
piratbit.pw



Скачать Железное сердце через торрент http://i83.fastpic.ru/big/2016/1020/31/f04e8a0eab847adb330d9c01dd344d31.jpg Скачать фильм Железное сердце через торрент бесплантно в хорошем качестве Описание: Отныне необходимо запомнить, что железные сердца - у офицеров лос-анджелесской полиции, даже если они выполняют особое задание в ... 10 10 3
Торрент: Зарегистрирован [2016-10-20 04:06] · скачан: 2 раз
Статус: √ проверено
Размер: 6.8 GB
Как cкачать? Как скачать Железное сердце через торрент | UTorrent

28-11-2019 20:33  

Отключить всю рекламу на сайте

    Дорогой пользователь! Огромная просьба, поблагодарите релизера, оцените раздачу и оставьте свои комментарий, если Вы скачали Железное сердце через торрент бесплатно! Внесите свою лепту в развитие PiratBit!
    Комментировать посты могут только пользователи прошедшие не сложную регистрацию
    Показать сообщения:    

    Железное сердце через торрент
    Скачать бесплатно Железное сердце
    Железное сердце скачать торрент
    Железное сердце смотреть онлайн
    Cкачать фильм Железное сердце бесплатно
    Железное сердце скачать торрент в хорошем качестве
    Железное сердце смотреть онлайн бесплатно в хорошем качестве


    Вы не можете начинать темы
    Вы не можете отвечать на сообщения
    Вы не можете редактировать свои сообщения
    Вы не можете удалять свои сообщения
    Вы не можете голосовать в опросах
    Вы не можете прикреплять файлы к сообщениям
    Вы можете скачивать файлы