Ссылка на приватное зеркало всего за 1$. Внимание количество ограничено!!!

iTunes

iTunes

iTunes

1

iTunes

iTunes

iTunes

iTunes

iTunes

30
pack

$ от Little Big

ВАЖНО

!!Акция!!

Alien_RageХит недели

RePack

Resident Evil 21

ИГРА 18+

pack

RePack

jed

!!Акция!!

Alien_Rage

RePack

fifa19

RePack

Assassins Creed: Odyssey

RePack

NEED FOR SPEED™ PAYBACK

4 сезон

9 сезон

Бесстыжие 9 сезон

Все сериалы

все сериалы на PB.wtf

RePack

FAR CRY 5
  

Виз / The Wiz (Сидни Люмет) [1978 г., мюзикл, фэнтези, приключения, BDRip] DVO piratbit.pw

Виз через торрент piratbit.pw

Размер: 2.18 GB | Добавлен: 3 года 8 мес. назад | Торрент скачан:0 раз
Скачать  

18-10-2016 11:01 Виз Скачать торрент  

Виз / The Wiz
Год выпуска: 1978
Страна: США
Жанр: мюзикл, фэнтези, приключения
Продолжительность: 02:14:12
Перевод: Профессиональный (двухголосый)
Субтитры: Английские

Режиссер: Сидни Люмет

Бюджет: $24 000 000
Премьера в мире: 24 октября 1978

rating

В ролях: Дайана Росс, Ричард Прайор, Майкл Джексон, Нипси Расселл, Тед Росс, Мейбл Кинг, Тереза Меррит, Телма Карпентер, Лена Хорн

Описание: Дороти — застенчивая воспитательница детского сада в Гарлеме, ищет своего потерявшегося пса Тото, пробиваясь сквозь бушующую метель. И вдруг… оказывается в Стране чудес, куда попадает по дороге, вымощенной желтым кирпичом.

Качество: BDRip
Формат: AVI
Видео кодек: XviD
Аудио кодек: AC3
Видео: XviD, 1736 Кбит/с, 704x384, 23.976 кадр/с
Аудио#1: AC3, 2 ch, 192 Кбит/с, 48 kHz | Русский
Аудио#2: AC3, 6 ch, 384 Кбит/с, 48 kHz | Aнглийский
Релиз от: Koenig
Общее
Полное имя : The.Wiz.1978.BDRip\The.Wiz.1978.BDRip.avi
Формат : AVI
Формат/Информация : Audio Video Interleave
Профиль формата : OpenDML
Размер файла : 2,18 Гбайт
Продолжительность : 2 ч. 14 м.
Общий поток : 2330 Кбит/сек
Программа кодирования : VirtualDubMod 1.5.10.2 (build 2540/release)
Библиотека кодирования : VirtualDubMod build 2540/release

Видео
Идентификатор : 0
Формат : MPEG-4 Visual
Профиль формата : Advanced Simple@L5
Параметр BVOP формата : 1
Параметр QPel формата : Нет
Параметр GMC формата : Без точки перехода
Параметр матрицы формата : Выборочная
Идентификатор кодека : XVID
Идентификатор кодека/Подсказка : XviD
Продолжительность : 2 ч. 14 м.
Битрейт : 1736 Кбит/сек
Ширина : 704 пикселя
Высота : 384 пикселя
Соотношение сторон : 1,85:1
Частота кадров : 23,976 (23976/1000) кадра/сек
Цветовое пространство : YUV
Субдискретизация насыщенности : 4:2:0
Битовая глубина : 8 бит
Тип развёртки : Прогрессивная
Метод сжатия : С потерями
Бит/(Пиксели*Кадры) : 0.268
Размер потока : 1,63 Гбайт (75%)
Библиотека кодирования : XviD 73

Аудио #1
Идентификатор : 1
Формат : AC-3
Формат/Информация : Audio Coding 3
Расширение режима : CM (complete main)
Параметр Endianness формата : Big
Идентификатор кодека : 2000
Продолжительность : 2 ч. 14 м.
Вид битрейта : Постоянный
Битрейт : 192 Кбит/сек
Каналы : 2 канала
Расположение каналов : Front: L R
Частота : 48,0 КГц
Частота кадров : 31,250 кадров/сек (1536 spf)
Метод сжатия : С потерями
Размер потока : 184 Мбайт (8%)
Выравнивание : Разделение по промежуткам
Продолжительность промежутка : 42 мс. (1,00 видеокадр)
Время предзагрузки промежутка : 500 мс.

Аудио #2
Идентификатор : 2
Формат : AC-3
Формат/Информация : Audio Coding 3
Расширение режима : CM (complete main)
Параметр Endianness формата : Big
Идентификатор кодека : 2000
Продолжительность : 2 ч. 14 м.
Вид битрейта : Постоянный
Битрейт : 384 Кбит/сек
Каналы : 6 каналов
Расположение каналов : Front: L C R, Side: L R, LFE
Частота : 48,0 КГц
Частота кадров : 31,250 кадров/сек (1536 spf)
Метод сжатия : С потерями
Размер потока : 369 Мбайт (16%)
Выравнивание : Разделение по промежуткам
Продолжительность промежутка : 42 мс. (1,00 видеокадр)
Время предзагрузки промежутка : 500 мс.

piratbit.pw



Скачать Виз через торрент http://pic1.kartinco.top/images/10/6swqr.jpg Скачать фильм Виз через торрент бесплантно в хорошем качестве Описание: Дороти — застенчивая воспитательница детского сада в Гарлеме, ищет своего потерявшегося пса Тото, пробиваясь сквозь бушующую ... 10 10 2
Info! Золотая раздача, скачанное не засчитывается.
Торрент: Зарегистрирован [2016-10-18 11:01] · скачан: 0 раз
Статус: √ проверено
Размер: 2.18 GB
Как cкачать? Как скачать Виз через торрент | qTorrent

28-11-2019 20:33  

Отключить всю рекламу на сайте

    Дорогой пользователь! Огромная просьба, поблагодарите релизера, оцените раздачу и оставьте свои комментарий, если Вы скачали Виз через торрент бесплатно! Внесите свою лепту в развитие PiratBit!
    Комментировать посты могут только пользователи прошедшие не сложную регистрацию
    Показать сообщения:    

    Виз через торрент
    Скачать бесплатно Виз
    Виз скачать торрент
    Виз смотреть онлайн
    Cкачать фильм Виз бесплатно
    Виз скачать торрент в хорошем качестве
    Виз смотреть онлайн бесплатно в хорошем качестве


    Вы не можете начинать темы
    Вы не можете отвечать на сообщения
    Вы не можете редактировать свои сообщения
    Вы не можете удалять свои сообщения
    Вы не можете голосовать в опросах
    Вы не можете прикреплять файлы к сообщениям
    Вы можете скачивать файлы