1 сезон

1 сезон

iTunes

1

КиноПоиск HD

Кинопоиск HD

iTunes

13

1 сезон

RePack

30

Новинка

ВАЖНО

ИГРА 18+

pack

RePack

MK11
pack

Легкие деньги

RePack

jed

RePack

fifa19

RePack

RDR2

RePack

NEED FOR SPEED™ PAYBACK

4 сезон

9 сезон

Бесстыжие 9 сезон

Все сериалы

все сериалы на PB.wtf

RePack

FAR CRY 5
  
Magnet ссылка

Военные потери / Жертвы войны / Casualties of War [Театральная версия] (Брайан Де Пальма) [1989 г., драма, криминал, военный, BDRip-AVC] AVO piratbit.pw

Военные потери через торрент piratbit.pw

Размер: 2.11 GB | Добавлен: 4 года 6 мес. назад | Торрент скачан:11 раз
Скачать  

15-10-2016 06:09 Военные потери Скачать торрент  

Военные потери / Жертвы войны / Casualties of War
[Театральная версия]

Год выпуска: 1989
Страна: США
Жанр: драма, криминал, военный
Продолжительность: 01:53:33
Перевод: Авторский (одноголосый) Михаил "kyberpunk" Яроцкий
Субтитры: русские, английские

Режиссер: Брайан Де Пальма

rating

В ролях:

Майкл Дж. Фокс, Шон Пенн , Дон Харви, Джон Си Райли, Джон Легуизамо, Тхюй Тху Ле, Эрик Кинг, Джек Гуолтни, Винг Реймз, Дэн Мартин

Описание:

«Военные потери» основан на реальной истории, случившейся со взводом американских солдат во время войны во Вьетнаме. Рядовой Эрикссон становится свидетелем ужасного изнасилования и убийства вьетнамской девушки во время боевой операции.
Отстаивая свою позицию, он вынужден противостоять всему взводу и его командиру — сержанту Месерву — человеку, давно забывшему о таком чувстве, как сострадание…


Качество: BDRip-AVC
Формат: MKV
Видео кодек: H.264
Аудио кодек: AC3

Видео: 1024x426 (2,40:1), 23,976 fps, High@L4.1 MPEG4 AVC (x264), ~1830 kbps avg, 0.175 bit/pixel
Аудио#1: RUS : 48 kHz, AC3 Dolby Digital, 3/2 (L,C,R) + L R, LFE ch, 448 kbps Авторский (одноголосый) Михаил "kyberpunk" Яроцкий
Аудио#2: ENG : 48 kHz, AC3 Dolby Digital, 3/2 (L,C,R) + L R, LFE ch, 384 kbps
гуки - пренебрежительное прозвище вьетнамцев
ВК (VC) - Вьетконг, вьетконговцы
Чарли - вьетконговцы, сокращенно от "Виктор Чарли" (Victor Charlie), так устно расшифровывалась аббревиатура VC (Вьетконг)
диди (didi) - идти, уходить
диди мау (didi mau) - бегом, быстро
Номер 1 - хороший, наилучший
Номер 10 - плохой, наихудший
динки дау (dinky dau) - безумие, с ума сойти
Лысый - невооруженный вертолёт UH-1, использовавшийся во Вьетнаме для перевозки групп солдат в зону проведения боевой операции и обратно. Т.к. из него не торчало никакого оружия, его прозвали "лысым" или "гладким" (slick).
Змея - Белл AH-1 «Cobra», американский ударный вертолёт.
"Противопальцевая" мина - противопехотная мина, предназначенная для выведения из строя личного состава противника. Поражение наносится за счет ранения нижней части ноги при соприкасании с нажимной крышкой мины.
Туннельные крысы - неофициальное название подразделений, созданных специально для действий в подземных туннелях, вырытых вьетнамскими партизанами.
Общее
Уникальный идентификатор : 220988603375765278681027755422792348472 (0xA640DB5B3D939A499C36029FB3E4F338)
Полное имя : D:\VIDEO\Мои переводы\Casualties of War.1989.BDRip-AVC.AVO.Kyberpunk.mkv
Формат : Matroska
Версия формата : Version 4 / Version 2
Размер файла : 2,11 Гбайт
Продолжительность : 1 ч. 53 м.
Общий поток : 2665 Кбит/сек
Дата кодирования : UTC 2016-09-25 12:01:27
Программа кодирования : mkvmerge v8.3.0 ('Over the Horizon') 64bit
Библиотека кодирования : libebml v1.3.1 + libmatroska v1.4.2

Видео
Идентификатор : 1
Формат : AVC
Формат/Информация : Advanced Video Codec
Профиль формата : High@L4.1
Параметр CABAC формата : Да
Параметр ReFrames формата : 10 кадров
Идентификатор кодека : V_MPEG4/ISO/AVC
Продолжительность : 1 ч. 53 м.
Битрейт : 1830 Кбит/сек
Ширина : 1024 пикселя
Высота : 426 пикселей
Соотношение сторон : 2,40:1
Режим частоты кадров : Постоянный
Частота кадров : 23,976 (24000/1001) кадра/сек
Цветовое пространство : YUV
Субдискретизация насыщенности : 4:2:0
Битовая глубина : 8 бит
Тип развёртки : Прогрессивная
Бит/(Пиксели*Кадры) : 0.175
Размер потока : 1,45 Гбайт (69%)
Библиотека кодирования : x264 core 133 r2334 a3ac64b
Настройки программы : cabac=1 / ref=10 / deblock=1:-2:-1 / analyse=0x3:0x113 / me=umh / subme=11 / psy=1 / psy_rd=1.00:0.20 / mixed_ref=1 / me_range=32 / chroma_me=1 / trellis=2 / 8x8dct=1 / cqm=0 / deadzone=21,11 / fast_pskip=0 / chroma_qp_offset=-3 / threads=3 / lookahead_threads=1 / sliced_threads=0 / nr=0 / decimate=0 / interlaced=0 / bluray_compat=0 / constrained_intra=0 / bframes=13 / b_pyramid=2 / b_adapt=2 / b_bias=0 / direct=3 / weightb=1 / open_gop=0 / weightp=2 / keyint=240 / keyint_min=23 / scenecut=40 / intra_refresh=0 / rc_lookahead=40 / rc=2pass / mbtree=0 / bitrate=1830 / ratetol=1.0 / qcomp=0.60 / qpmin=0 / qpmax=69 / qpstep=4 / cplxblur=20.0 / qblur=0.5 / vbv_maxrate=50000 / vbv_bufsize=50000 / nal_hrd=none / ip_ratio=1.40 / pb_ratio=1.30 / aq=1:1.00
Язык : English
Default : Да
Forced : Нет

Аудио #1
Идентификатор : 2
Формат : AC-3
Формат/Информация : Audio Coding 3
Расширение режима : CM (complete main)
Параметр Endianness формата : Big
Идентификатор кодека : A_AC3
Продолжительность : 1 ч. 53 м.
Вид битрейта : Постоянный
Битрейт : 448 Кбит/сек
Каналы : 6 каналов
Расположение каналов : Front: L C R, Side: L R, LFE
Частота : 48,0 КГц
Частота кадров : 31,250 кадров/сек (1536 spf)
Метод сжатия : С потерями
Размер потока : 364 Мбайт (17%)
Заголовок : AVO М.Яроцкий
Язык : Russian
Default : Да
Forced : Нет

Аудио #2
Идентификатор : 3
Формат : AC-3
Формат/Информация : Audio Coding 3
Расширение режима : CM (complete main)
Параметр Endianness формата : Big
Идентификатор кодека : A_AC3
Продолжительность : 1 ч. 53 м.
Вид битрейта : Постоянный
Битрейт : 384 Кбит/сек
Каналы : 6 каналов
Расположение каналов : Front: L C R, Side: L R, LFE
Частота : 48,0 КГц
Частота кадров : 31,250 кадров/сек (1536 spf)
Метод сжатия : С потерями
Размер потока : 312 Мбайт (14%)
Язык : English
Default : Нет
Forced : Нет

Текст #1
Идентификатор : 4
Формат : UTF-8
Идентификатор кодека : S_TEXT/UTF8
Идентификатор кодека/Информация : UTF-8 Plain Text
Продолжительность : 1 ч. 49 м.
Битрейт : 69 бит/сек
Count of elements : 1194
Размер потока : 55,1 Кбайт (0%)
Язык : Russian
Default : Нет
Forced : Нет

Текст #2
Идентификатор : 5
Формат : UTF-8
Идентификатор кодека : S_TEXT/UTF8
Идентификатор кодека/Информация : UTF-8 Plain Text
Продолжительность : 1 ч. 49 м.
Битрейт : 46 бит/сек
Count of elements : 1067
Размер потока : 37,0 Кбайт (0%)
Язык : English
Default : Нет
Forced : Нет

Меню
00:00:00.000 : :Chapter 01
00:07:43.045 : :Chapter 02
00:14:29.907 : :Chapter 03
00:21:09.643 : :Chapter 04
00:29:11.663 : :Chapter 05
00:35:42.431 : :Chapter 06
00:42:07.233 : :Chapter 07
00:53:08.018 : :Chapter 08
00:56:53.451 : :Chapter 09
01:03:17.251 : :Chapter 10
01:11:28.951 : :Chapter 11
01:17:04.036 : :Chapter 12
01:23:05.814 : :Chapter 13
01:30:22.332 : :Chapter 14
01:38:19.518 : :Chapter 15
01:43:58.229 : :Chapter 16
скриншот  скриншот  скриншот  скриншот  

скриншот  скриншот  
piratbit.pw



Скачать Военные потери через торрент https://pic1.kartinco.top/images/10/gquj6.jpg Скачать фильм Военные потери через торрент бесплантно в хорошем качестве Описание: «Военные потери» основан на реальной истории, случившейся со взводом американских солдат во время войны во Вьетнаме. Рядовой ... 10 10 4
Торрент: Зарегистрирован [2016-10-15 06:09] · скачан: 11 раз
Статус: √ проверено
Размер: 2.11 GB
Как cкачать? Как скачать Военные потери через торрент | UTorrent

28-11-2019 20:33  

Отключить всю рекламу на сайте


15-10-2016 13:47 Военные потери Скачать торрент  

Всем приятного просмотра) piratbit.pw



    Дорогой пользователь! Огромная просьба, поблагодарите релизера, оцените раздачу и оставьте свои комментарий, если Вы скачали Военные потери через торрент бесплатно! Внесите свою лепту в развитие PiratBit!
    Комментировать посты могут только пользователи прошедшие не сложную регистрацию
    Показать сообщения:    

    Военные потери через торрент
    Скачать бесплатно Военные потери
    Военные потери скачать торрент
    Военные потери смотреть онлайн
    Cкачать фильм Военные потери бесплатно
    Военные потери скачать торрент в хорошем качестве
    Военные потери смотреть онлайн бесплатно в хорошем качестве


    Вы не можете начинать темы
    Вы не можете отвечать на сообщения
    Вы не можете редактировать свои сообщения
    Вы не можете удалять свои сообщения
    Вы не можете голосовать в опросах
    Вы не можете прикреплять файлы к сообщениям
    Вы можете скачивать файлы