Ссылка на приватное зеркало нашего сайта всего за 1$. Внимание количество ограничено!!!

2 сезон

iTunes

iTunes

1

iTunes

iTunes

iTunes

WEBRip

iTunes

30
pack

Вам бонус

ВАЖНО

!!Акция!!

Alien_RageХит недели

RePack

Horizon Zero Dawn

ИГРА 18+

pack

RePack

jed

!!Акция!!

Alien_Rage

RePack

fifa19

RePack

Assassins Creed: Odyssey

RePack

NEED FOR SPEED™ PAYBACK

4 сезон

9 сезон

Бесстыжие 9 сезон

Все сериалы

все сериалы на PB.wtf

RePack

FAR CRY 5
  

Кортик / 3 серии из 3 (Николай Калинин) [1974 г., приключения, семейный, история, DVDRip-AVC] piratbit.pw

Кортик через торрент piratbit.pw

Размер: 2.18 GB | Добавлен: 3 года 11 мес. назад | Торрент скачан:61 раз
Скачать  

13-10-2016 07:21 Кортик Скачать торрент  

Кортик
Год выпуска: 1974
Страна: СССР
Жанр: приключения, семейный, история
Кол-во серий: 3 из 3
Продолжительность: 03:28:11(01:08:29, 01:10:23, 01:09:19)
Перевод: Не требуется
Субтитры: отсутствуют

Режиссер: Николай Калинин

rating

В ролях:

Сергей Шевкуненко, Владимир Дичковский, Зоя Фёдорова, Эммануил Виторган, Виктор Сергачев, Михаил Голубович, Леонид Кмит, Наталья Чемодурова

Описание:

Пионеры 20-х годов пытаются раскрыть тайну морского кортика, хранящего шифрованное послание. Но при этом им приходится то и дело вступать в противостояние с бандитами…

Качество: DVDRip-AVC
Формат: MKV
Видео кодек: H.264
Аудио кодек: AC3

Видео: 692x570@760x570 (1,33:1), 25 fps, AVC (x264), High@L4.1 ~1275 kbps avg, 0.129 bit/pixel
Аудио#1: 48 kHz, AC3 Dolby Digital, 2/0 (L,R) ch, ~224 kbps

Первая часть приключенческой трилогии Анатолия Рыбакова.
Общее
Уникальный идентификатор : 220518637730588572787670234981530651814 (0xA5E65842DA2374CCB67A5EEBC818CCA6)
Полное имя : E:\Релизы\Kortik\1.mkv
Формат : Matroska
Размер файла : 755 Мбайт
Продолжительность : 1 ч. 8 м.
Общий поток : 1539 Кбит/сек
Дата кодирования : UTC 2012-01-31 14:27:54
Программа кодирования : mkvmerge v4.0.0 ('The Stars were mine') сборка от Jun 6 2010 16:18:42
Библиотека кодирования : libebml v1.0.0 + libmatroska v1.0.0

Видео
Идентификатор : 1
Формат : AVC
Формат/Информация : Advanced Video Codec
Профиль формата : High@L4.1
Параметр CABAC формата : Да
Параметр ReFrames формата : 3 кадра
Параметры GOP формата : M=4, N=24
Идентификатор кодека : V_MPEG4/ISO/AVC
Продолжительность : 1 ч. 8 м.
Битрейт : 1275 Кбит/сек
Ширина : 692 пикс.
Высота : 570 пикс.
Соотношение сторон : 4:3
Частота кадров : 25,000 кадр/сек
Цветовое пространство : YUV
Подвыборка цветности : 4:2:0
Битовая глубина : 8 бит
Тип развёртки : Прогрессивная
Бит/(Пиксели*Кадры) : 0.129
Размер потока : 630 Мбайт (83%)
Библиотека кодирования : x264 core 116 r2074 2641b9e
Настройки программы : cabac=1 / ref=3 / deblock=1:-2:-1 / analyse=0x3:0x113 / me=hex / subme=7 / psy=1 / psy_rd=1.00:0.10 / mixed_ref=1 / me_range=16 / chroma_me=1 / trellis=1 / 8x8dct=1 / cqm=0 / deadzone=21,11 / fast_pskip=1 / chroma_qp_offset=-3 / threads=3 / sliced_threads=0 / nr=0 / decimate=1 / interlaced=0 / bluray_compat=0 / constrained_intra=0 / bframes=3 / b_pyramid=0 / b_adapt=1 / b_bias=0 / direct=1 / weightb=1 / open_gop=0 / weightp=2 / keyint=250 / keyint_min=25 / scenecut=40 / intra_refresh=0 / rc_lookahead=40 / rc=2pass / mbtree=1 / bitrate=1275 / ratetol=1.0 / qcomp=0.60 / qpmin=10 / qpmax=51 / qpstep=4 / cplxblur=20.0 / qblur=0.5 / vbv_maxrate=50000 / vbv_bufsize=50000 / nal_hrd=none / ip_ratio=1.40 / aq=1:1.00

Аудио
Идентификатор : 2
Формат : AC-3
Формат/Информация : Audio Coding 3
Расширение режима : CM (complete main)
Идентификатор кодека : A_AC3
Продолжительность : 1 ч. 8 м.
Вид битрейта : Постоянный
Битрейт : 224 Кбит/сек
Каналы : 2 канала
Расположение каналов : Front: L R
Частота : 48,0 КГц
Битовая глубина : 16 бит
Метод сжатия : С потерями
Размер потока : 110 Мбайт (15%)

Общее
Уникальный идентификатор : 250622990999541952105052430920470724254 (0xBC8C3B78C9190DBB986384D295EB7E9E)
Полное имя : E:\Релизы\Kortik\2.mkv
Формат : Matroska
Размер файла : 783 Мбайт
Продолжительность : 1 ч. 10 м.
Общий поток : 1557 Кбит/сек
Дата кодирования : UTC 2012-01-31 14:30:11
Программа кодирования : mkvmerge v4.0.0 ('The Stars were mine') сборка от Jun 6 2010 16:18:42
Библиотека кодирования : libebml v1.0.0 + libmatroska v1.0.0

Видео
Идентификатор : 1
Формат : AVC
Формат/Информация : Advanced Video Codec
Профиль формата : High@L4.1
Параметр CABAC формата : Да
Параметр ReFrames формата : 3 кадра
Идентификатор кодека : V_MPEG4/ISO/AVC
Продолжительность : 1 ч. 10 м.
Битрейт : 1302 Кбит/сек
Ширина : 692 пикс.
Высота : 570 пикс.
Соотношение сторон : 4:3
Частота кадров : 25,000 кадр/сек
Цветовое пространство : YUV
Подвыборка цветности : 4:2:0
Битовая глубина : 8 бит
Тип развёртки : Прогрессивная
Бит/(Пиксели*Кадры) : 0.132
Размер потока : 655 Мбайт (84%)

Аудио
Идентификатор : 2
Формат : AC-3
Формат/Информация : Audio Coding 3
Расширение режима : CM (complete main)
Идентификатор кодека : A_AC3
Продолжительность : 1 ч. 10 м.
Вид битрейта : Постоянный
Битрейт : 224 Кбит/сек
Каналы : 2 канала
Расположение каналов : Front: L R
Частота : 48,0 КГц
Битовая глубина : 16 бит
Метод сжатия : С потерями
Размер потока : 113 Мбайт (14%)

Общее
Уникальный идентификатор : 213275674784189251780623965781218816730 (0xA073669DF335FBD6A9C35EB69E1BF2DA)
Полное имя : E:\Релизы\Kortik\3.mkv
Формат : Matroska
Размер файла : 697 Мбайт
Продолжительность : 1 ч. 9 м.
Общий поток : 1407 Кбит/сек
Дата кодирования : UTC 2012-01-31 15:05:42
Программа кодирования : mkvmerge v4.0.0 ('The Stars were mine') сборка от Jun 6 2010 16:18:42
Библиотека кодирования : libebml v1.0.0 + libmatroska v1.0.0

Видео
Идентификатор : 1
Формат : AVC
Формат/Информация : Advanced Video Codec
Профиль формата : High@L4.1
Параметр CABAC формата : Да
Параметр ReFrames формата : 3 кадра
Идентификатор кодека : V_MPEG4/ISO/AVC
Продолжительность : 1 ч. 9 м.
Битрейт : 1155 Кбит/сек
Ширина : 692 пикс.
Высота : 570 пикс.
Соотношение сторон : 4:3
Частота кадров : 25,000 кадр/сек
Цветовое пространство : YUV
Подвыборка цветности : 4:2:0
Битовая глубина : 8 бит
Тип развёртки : Прогрессивная
Бит/(Пиксели*Кадры) : 0.117
Размер потока : 572 Мбайт (82%)

Аудио
Идентификатор : 2
Формат : AC-3
Формат/Информация : Audio Coding 3
Расширение режима : CM (complete main)
Идентификатор кодека : A_AC3
Продолжительность : 1 ч. 9 м.
Вид битрейта : Постоянный
Битрейт : 224 Кбит/сек
Каналы : 2 канала
Расположение каналов : Front: L R
Частота : 48,0 КГц
Битовая глубина : 16 бит
Метод сжатия : С потерями
Задержка видео : 4 мс.
Размер потока : 111 Мбайт (16%)
скриншот  скриншот  скриншот   скриншот  
piratbit.pw



Скачать Кортик через торрент http://pic1.kartinco.top/images/10/loh6k.jpg Скачать фильм Кортик через торрент бесплантно в хорошем качестве Описание: Пионеры 20-х годов пытаются раскрыть тайну морского кортика, хранящего шифрованное послание. Но при этом им приходится то и дело ... 10 10 8
Info! Золотая раздача, скачанное не засчитывается.
Торрент: Зарегистрирован [2016-10-13 07:21] · скачан: 61 раз
Статус: √ проверено
Размер: 2.18 GB
Как cкачать? Как скачать Кортик через торрент | qTorrent

% Раздел Тема Автор DL S | L
Детские отечественные фильмы [ 3.3 GB ] Кортик [1973 история DVDRip Оригинал] кэп Скачать
1 | 0

28-11-2019 20:33  

Отключить всю рекламу на сайте

    Дорогой пользователь! Огромная просьба, поблагодарите релизера, оцените раздачу и оставьте свои комментарий, если Вы скачали Кортик через торрент бесплатно! Внесите свою лепту в развитие PiratBit!
    Комментировать посты могут только пользователи прошедшие не сложную регистрацию
    Показать сообщения:    

    Кортик через торрент
    Скачать бесплатно Кортик
    Кортик скачать торрент
    Кортик смотреть онлайн
    Cкачать фильм Кортик бесплатно
    Кортик скачать торрент в хорошем качестве
    Кортик смотреть онлайн бесплатно в хорошем качестве


    Вы не можете начинать темы
    Вы не можете отвечать на сообщения
    Вы не можете редактировать свои сообщения
    Вы не можете удалять свои сообщения
    Вы не можете голосовать в опросах
    Вы не можете прикреплять файлы к сообщениям
    Вы можете скачивать файлы