Marvel's Avengers Deluxe Edition (супер цена) 159р. Внимание количество ограничено!!!

2 сезон

iTunes

iTunes

1

iTunes

iTunes

iTunes

WEBRip

iTunes

30
pack

Новость дня

ВАЖНО

!!Акция!!

Alien_RageХит недели

RePack

Horizon Zero Dawn

ИГРА 18+

pack

RePack

jed

!!Акция!!

Alien_Rage

RePack

fifa19

RePack

Assassins Creed: Odyssey

RePack

NEED FOR SPEED™ PAYBACK

4 сезон

9 сезон

Бесстыжие 9 сезон

Все сериалы

все сериалы на PB.wtf

RePack

FAR CRY 5
  

Сказка о потерянном времени (Александр Птушко ) [1964, фэнтези, комедия, семейный, DVDRip-AVC] piratbit.pw

Сказка о потерянном времени через торрент piratbit.pw

Размер: 1.46 GB | Добавлен: 3 года 11 мес. назад | Торрент скачан:61 раз
Скачать  

11-10-2016 15:20 Сказка о потерянном времени Скачать торрент  

Сказка о потерянном времени

Год выпуска: 1964
Страна: СССР
Жанр: фэнтези, комедия, семейный

Продолжительность: 01:15:40
Перевод: Не требуется [Русский]
Субтитры: русский, английский, французский, испанский, португальский, немецкий, нидерландский, шведский, итальянский
Режиссер: Александр Птушко
В ролях: Олег Анофриев (взрослый Петя Зубов), Гриша Плоткин (молодой Петя Зубов), Сергей Мартинсон (взрослый Прокофий Прокофьевич), Евгений Соколов (молодой Прокофий Прокофьевич), Георгий Вицин (взрослый Андрей Андреич), Сергей Карпоносов (молодой Андрей Андреич), Ирина Мурзаева (взрослая Анна Ивановна), Зинаида Кукушкина (молодая Анна Ивановна), Валентина Телегина (взрослая Авдотья Петровна), Татьяна Донценко (молодая Авдотья Петровна), Людмила Шагалова (взрослая Маруся), Вера Волкова (молодая Маруся)
Описание:
Четверо злых волшебников решили вернуть себе молодость. Но для этого им было необходимо найти людей, бесцельно растрачивающих свое время. Удача улыбнулась им в лице четверых безалаберных школьников. Из-за колдовства школьники постарели, а волшебники превратились в детей. Но у превращенных остался шанс - до заката солнца они должны были найти избушку волшебников и перевести стрелки волшебных часов назад...

Качество: DVDRip-AVC
Формат: MKV
Видео: AVC, 696x568@758x568 (4:3), 2305 kbps, 25 fps, 0,233 bpp
Аудио: русский / AC3 / 5.1 / 48 kHz / 448 kbps /
Навигация по главам: есть

General
Unique ID \Skazka.o.poterjannom.vremeni.1964.DVDRip-AVC.mkv
Format : Matroska
Format version : Version 2
File size : 1.46 GiB
Duration : 1 h 15 min
Overall bit rate : 2 755 kb/s
Movie name : Skazka.o.poterjannom.vremeni.1964.DVDRip-AVC
Encoded date : UTC 2013-01-01 13:07:57
Writing application : mkvmerge v5.8.0 ('No Sleep / Pillow') built on Sep 2 2012 15:37:04
Writing library : libebml v1.2.3 + libmatroska v1.3.0

Video
ID : 1
Format : AVC
Format/Info : Advanced Video Codec
Format profile : High@L4.1
Format settings, CABAC : Yes
Format settings, ReFrames : 11 frames
Codec ID : V_MPEG4/ISO/AVC
Duration : 1 h 15 min
Bit rate : 2 305 kb/s
Width : 696 pixels
Height : 568 pixels
Display aspect ratio : 4:3
Original display aspect ratio : 4:3
Frame rate mode : Constant
Frame rate : 25.000 FPS
Color space : YUV
Chroma subsampling : 4:2:0
Bit depth : 8 bits
Scan type : Progressive
Bits/(Pixel*Frame) : 0.233
Stream size : 1.19 GiB (82%)
Title : Источник DVD9
Writing library : x264 core 119 r2106 07efeb4
Encoding settings : cabac=1 / ref=11 / deblock=1:-2:-1 / analyse=0x3:0x113 / me=umh / subme=9 / psy=1 / psy_rd=1.00:0.20 / mixed_ref=1 / me_range=32 / chroma_me=1 / trellis=1 / 8x8dct=1 / cqm=0 / deadzone=21,11 / fast_pskip=0 / chroma_qp_offset=-3 / threads=3 / sliced_threads=0 / nr=0 / decimate=0 / interlaced=0 / bluray_compat=0 / constrained_intra=0 / bframes=8 / b_pyramid=2 / b_adapt=2 / b_bias=0 / direct=3 / weightb=1 / open_gop=0 / weightp=2 / keyint=250 / keyint_min=25 / scenecut=40 / intra_refresh=0 / rc_lookahead=60 / rc=2pass / mbtree=1 / bitrate=2305 / ratetol=1.0 / qcomp=0.60 / qpmin=0 / qpmax=69 / qpstep=4 / cplxblur=20.0 / qblur=0.5 / ip_ratio=1.40 / aq=1:1.00
Language : Russian
Default : Yes
Forced : No

Audio
ID : 2
Format : AC-3
Format/Info : Audio Coding 3
Mode extension : CM (complete main)
Format settings, Endianness : Big
Codec ID : A_AC3
Duration : 1 h 15 min
Bit rate mode : Constant
Bit rate : 448 kb/s
Channel(s) : 6 channels
Channel positions : Front: L C R, Side: L R, LFE
Sampling rate : 48.0 kHz
Frame rate : 31.250 FPS (1536 spf)
Compression mode : Lossy
Delay relative to video : 200 ms
Stream size : 242 MiB (16%)
Title : Источник DVD9
Language : Russian
Default : Yes
Forced : No

Text #1
ID : 3
Format : UTF-8
Codec ID : S_TEXT/UTF8
Codec ID/Info : UTF-8 Plain Text
Title : Источник Сеть
Language : Russian
Default : No
Forced : No

Text #2
ID : 4
Format : UTF-8
Codec ID : S_TEXT/UTF8
Codec ID/Info : UTF-8 Plain Text
Title : Источник Сеть
Language : English
Default : No
Forced : No

Text #3
ID : 5
Format : UTF-8
Codec ID : S_TEXT/UTF8
Codec ID/Info : UTF-8 Plain Text
Title : Источник Сеть
Language : French
Default : No
Forced : No

Text #4
ID : 6
Format : UTF-8
Codec ID : S_TEXT/UTF8
Codec ID/Info : UTF-8 Plain Text
Title : Источник Сеть
Language : Spanish
Default : No
Forced : No

Text #5
ID : 7
Format : UTF-8
Codec ID : S_TEXT/UTF8
Codec ID/Info : UTF-8 Plain Text
Title : Источник Сеть
Language : Dutch
Default : No
Forced : No

Text #6
ID : 8
Format : UTF-8
Codec ID : S_TEXT/UTF8
Codec ID/Info : UTF-8 Plain Text
Title : Источник Сеть
Language : Swedish
Default : No
Forced : No

Text #7
ID : 9
Format : UTF-8
Codec ID : S_TEXT/UTF8
Codec ID/Info : UTF-8 Plain Text
Title : Источник Сеть
Language : German
Default : No
Forced : No

Text #8
ID : 10
Format : UTF-8
Codec ID : S_TEXT/UTF8
Codec ID/Info : UTF-8 Plain Text
Title : Источник Сеть
Language : Italian
Default : No
Forced : No

Text #9
ID : 11
Format : UTF-8
Codec ID : S_TEXT/UTF8
Codec ID/Info : UTF-8 Plain Text
Title : Источник Сеть
Language : Portuguese
Default : No
Forced : No

Menu
00:00:00.000 : ru:00:00:00.000000000
00:05:00.000 : :00:05:00.000000000
00:10:00.000 : :00:10:00.000000000
00:15:00.000 : :00:15:00.000000000
00:20:00.000 : :00:20:00.000000000
00:25:00.000 : :00:25:00.000000000
00:30:00.000 : :00:30:00.000000000
00:35:00.000 : :00:35:00.000000000
00:40:00.000 : :00:40:00.000000000
00:45:00.000 : :00:45:00.000000000
00:50:00.000 : :00:50:00.000000000
00:55:00.000 : :00:55:00.000000000
01:00:00.000 : :01:00:00.000000000
01:05:00.000 : :01:05:00.000000000
01:10:00.000 : :01:10:00.000000000
Скриншоты:
piratbit.pw



Скачать Сказка о потерянном времени через торрент http://i2.imageban.ru/out/2016/10/11/0a7e3780b68efabd0487b70b99d83812.jpg Скачать фильм Сказка о потерянном времени через торрент бесплантно в хорошем качестве Описание: Четверо злых волшебников решили вернуть себе молодость. Но для этого им было необходимо найти людей, бесцельно растрачивающих ... 10 10 4
Info! Золотая раздача, скачанное не засчитывается.
Торрент: Зарегистрирован [2016-10-11 15:20] · скачан: 61 раз
Статус: √ проверено
Размер: 1.46 GB
Как cкачать? Как скачать Сказка о потерянном времени через торрент | qTorrent

% Раздел Тема Автор DL S | L
Детские отечественные фильмы [ 1.37 GB ] Сказка о потерянном времени [1964 DVDRip] VORLKED Скачать
2 | 0

28-11-2019 20:33  

Отключить всю рекламу на сайте

11-10-2016 15:48 Сказка о потерянном времени Скачать торрент  

фэнтези piratbit.pw



    Дорогой пользователь! Огромная просьба, поблагодарите релизера, оцените раздачу и оставьте свои комментарий, если Вы скачали Сказка о потерянном времени через торрент бесплатно! Внесите свою лепту в развитие PiratBit!
    Комментировать посты могут только пользователи прошедшие не сложную регистрацию
    Показать сообщения:    

    Сказка о потерянном времени через торрент
    Скачать бесплатно Сказка о потерянном времени
    Сказка о потерянном времени скачать торрент
    Сказка о потерянном времени смотреть онлайн
    Cкачать фильм Сказка о потерянном времени бесплатно
    Сказка о потерянном времени скачать торрент в хорошем качестве
    Сказка о потерянном времени смотреть онлайн бесплатно в хорошем качестве


    Вы не можете начинать темы
    Вы не можете отвечать на сообщения
    Вы не можете редактировать свои сообщения
    Вы не можете удалять свои сообщения
    Вы не можете голосовать в опросах
    Вы не можете прикреплять файлы к сообщениям
    Вы можете скачивать файлы