Marvel's Avengers Deluxe Edition (супер цена) 159р. Внимание количество ограничено!!!

2 сезон

iTunes

iTunes

1

iTunes

iTunes

iTunes

WEBRip

iTunes

30
pack

Новость дня

ВАЖНО

!!Акция!!

Alien_RageХит недели

RePack

Horizon Zero Dawn

ИГРА 18+

pack

RePack

jed

!!Акция!!

Alien_Rage

RePack

fifa19

RePack

Assassins Creed: Odyssey

RePack

NEED FOR SPEED™ PAYBACK

4 сезон

9 сезон

Бесстыжие 9 сезон

Все сериалы

все сериалы на PB.wtf

RePack

FAR CRY 5
  

Тимур и его команда (Александр Разумный) [1940, боевик, приключения, DVDRip] piratbit.pw

Тимур и его команда через торрент piratbit.pw

Размер: 1.08 GB | Добавлен: 3 года 11 мес. назад | Торрент скачан:8 раз
Скачать  

11-10-2016 14:47 Тимур и его команда Скачать торрент  

Тимур и его команда

Год выпуска: 1940
Страна: СССР
Жанр: боевик, приключения
Продолжительность: 01:16:43
Перевод: Не требуется [Русский]
Режиссер: Александр Разумный
В ролях: Ливий Щипачев (Тимур), Петр Савин (Георгий), Лев Потемкин (доктор Колокольчиков), Виктор Селезнев (Витя), Николай Анненков (комполка Александров, отец Жени и Ольги), Марина Ковалева (Ольга), Екатерина Деревщикова (Женя), Пётр Гроховский (Коля), Николай Кутузов (Гейка), Игорь Смирнов (Симаков), Борис Ясень (Мишка Квакин), Елена Максимова (молочница)
Описание:
Фильм о группе пионеров, помогающих семьям красноармейцев. Действие фильма, ставшего классикой советского кино для детей, происходит в одном из дачных поселков, расположенном вблизи большого города.

Качество: DVDRip
Формат: AVI
Видео: XviD, 672x528 (1.273), 1740 kbps, 25 fps, 0,196 bpp
Аудио: AC3 / 2.0 / 48 kHz / 256 kbps /

General
Complete name Timur_i_ego_komanda_(1940)_DVDRip.avi
Format : AVI
Format/Info : Audio Video Interleave
File size : 1.08 GiB
Duration : 1 h 16 min
Overall bit rate : 2 007 kb/s
Movie name : Rip by Marchik60
Writing application : VirtualDubMod 1.5.10.2 (build 2540/release)
Writing library : VirtualDubMod build 2540/release

Video
ID : 0
Format : MPEG-4 Visual
Format profile : Advanced Simple@L5
Format settings, BVOP : 2
Format settings, QPel : No
Format settings, GMC : No warppoints
Format settings, Matrix : Custom
Codec ID : XVID
Codec ID/Hint : XviD
Duration : 1 h 16 min
Bit rate : 1 741 kb/s
Width : 672 pixels
Height : 528 pixels
Display aspect ratio : 1.273
Frame rate : 25.000 FPS
Color space : YUV
Chroma subsampling : 4:2:0
Bit depth : 8 bits
Scan type : Progressive
Compression mode : Lossy
Bits/(Pixel*Frame) : 0.196
Stream size : 955 MiB (87%)
Writing library : XviD 65

Audio
ID : 1
Format : AC-3
Format/Info : Audio Coding 3
Mode extension : CM (complete main)
Format settings, Endianness : Big
Codec ID : 2000
Duration : 1 h 16 min
Bit rate mode : Constant
Bit rate : 256 kb/s
Channel(s) : 2 channels
Channel positions : Front: L R
Sampling rate : 48.0 kHz
Frame rate : 31.250 FPS (1536 spf)
Compression mode : Lossy
Stream size : 140 MiB (13%)
Alignment : Split accross interleaves
Interleave, duration : 40 ms (1.00 video frame)
Interleave, preload duration : 500 ms
Скриншоты:
piratbit.pw



Скачать Тимур и его команда через торрент http://i2.imageban.ru/out/2016/10/11/7ceaca3411229a4affed06f9c46ddbb3.jpg Скачать фильм Тимур и его команда через торрент бесплантно в хорошем качестве Описание: Фильм о группе пионеров, помогающих семьям красноармейцев. Действие фильма, ставшего классикой советского кино для детей, ... 10 10 5
Info! Золотая раздача, скачанное не засчитывается.
Торрент: Зарегистрирован [2016-10-11 14:47] · скачан: 8 раз
Статус: √ проверено
Размер: 1.08 GB
Как cкачать? Как скачать Тимур и его команда через торрент | qTorrent

% Раздел Тема Автор DL S | L
Гонзо [ 2.73 GB ] Тимур И Его Команда / Timo [2010 All sex Oral Teens Gonzo Anal Russian Girls DVDRip Оригинал] sheker187 Скачать
1 | 0
Детские отечественные фильмы [ 2.05 GB ] Тимур и его команда [1976 Детские . DVDRip] Pir@tya2010 Скачать
1 | 0
Детская литература [ 273 MB ] Гайдар Аркадий - Гайдар Аркадий - «Тимур и его команда» [Денис Кулютников 2007 256 kbps] [Денис Кулютников 2007] metyaica Скачать
1 | 0

28-11-2019 20:33  

Отключить всю рекламу на сайте

11-10-2016 15:55 Тимур и его команда Скачать торрент  

боевик блин...piratbit.pw



    Дорогой пользователь! Огромная просьба, поблагодарите релизера, оцените раздачу и оставьте свои комментарий, если Вы скачали Тимур и его команда через торрент бесплатно! Внесите свою лепту в развитие PiratBit!
    Комментировать посты могут только пользователи прошедшие не сложную регистрацию
    Показать сообщения:    

    Тимур и его команда через торрент
    Скачать бесплатно Тимур и его команда
    Тимур и его команда скачать торрент
    Тимур и его команда смотреть онлайн
    Cкачать фильм Тимур и его команда бесплатно
    Тимур и его команда скачать торрент в хорошем качестве
    Тимур и его команда смотреть онлайн бесплатно в хорошем качестве


    Вы не можете начинать темы
    Вы не можете отвечать на сообщения
    Вы не можете редактировать свои сообщения
    Вы не можете удалять свои сообщения
    Вы не можете голосовать в опросах
    Вы не можете прикреплять файлы к сообщениям
    Вы можете скачивать файлы