Marvel's Avengers Deluxe Edition (супер цена) 159р. Внимание количество ограничено!!!

2 сезон

iTunes

iTunes

1

iTunes

iTunes

iTunes

WEBRip

iTunes

30
pack

Новость дня

ВАЖНО

!!Акция!!

Alien_RageХит недели

RePack

Horizon Zero Dawn

ИГРА 18+

pack

RePack

jed

!!Акция!!

Alien_Rage

RePack

fifa19

RePack

Assassins Creed: Odyssey

RePack

NEED FOR SPEED™ PAYBACK

4 сезон

9 сезон

Бесстыжие 9 сезон

Все сериалы

все сериалы на PB.wtf

RePack

FAR CRY 5
  

Новогодние приключения Маши и Вити (Геннадий Казанский , Игорь Усов ) [1975, фэнтези, семейный, музыка, DVDRip] piratbit.pw

Новогодние приключения Маши и Вити через торрент piratbit.pw

Раздают: 1 [ 0 KB/s ]
Размер: 1.37 GB | Добавлен: 3 года 11 мес. назад | Торрент скачан:343 раза
Скачать  

11-10-2016 12:02 Новогодние приключения Маши и Вити Скачать торрент  

Новогодние приключения Маши и Вити

Год выпуска: 1975
Страна: СССР
Жанр: фэнтези, семейный, музыка
Продолжительность: 01:06:37
Перевод: Не требуется [Русский]
Режиссер: Геннадий Казанский , Игорь Усов
В ролях: Ирина Борисова (Снегурочка), Михаил Боярский (кот Матвей), Николай Боярский (Кащей), Валентина Кособуцкая (Баба Яга), Юрий Нахратов (Витя), Георгий Штиль (Леший), Наталья Симонова (Маша), Борис Смолкин (Лесовичок), Вера Титова (Печка), Любовь Виролайнен (Яблоня), Игорь Ефимов (Дед Мороз)
Описание:
Они такие разные - младшеклассники Витя, верящий только в технику, и Маша, верящая в чудеса. Вместе с другими ребятами они украшают ёлку, но Дед Мороз поведал им, что Снегурочку похитил Кащей, чтобы устроить Новый год для своей нечисти. Маша и Витя с помощью Дед-Мороза отправляются в сказку на помощь Снегурочке. Кащей, узнав об этом, посылает им навстречу нечистую силу - вокально-инструментальную троицу «Дикие гитары»: Бабу-Ягу, Лешего и Дикого Кота Матвея.

Качество: DVDRip
Формат: AVI
Видео: DivX 5, 720x560 (1.286), 2480 kbps, 25 fps, 0,246 bpp
Аудио: русский / AC3 / 5.1 / 48 kHz / 448 kbps /

General
Complete name \Novogodnie.prikljuchenija.Mashi.i.Viti.1975.DVDRip.avi
Format : AVI
Format/Info : Audio Video Interleave
File size : 1.37 GiB
Duration : 1 h 6 min
Overall bit rate : 2 935 kb/s
Writing application : VirtualDubMod 1.5.4.1 (build 2178/release)
Writing library : VirtualDubMod build 2178/release

Video
ID : 0
Format : MPEG-4 Visual
Format settings, BVOP : 1
Format settings, QPel : No
Format settings, GMC : No warppoints
Format settings, Matrix : Default (H.263)
Muxing mode : Packed bitstream
Codec ID : DX50
Codec ID/Hint : DivX 5
Duration : 1 h 6 min
Bit rate : 2 480 kb/s
Width : 720 pixels
Height : 560 pixels
Display aspect ratio : 1.286
Frame rate : 25.000 FPS
Color space : YUV
Chroma subsampling : 4:2:0
Bit depth : 8 bits
Scan type : Progressive
Compression mode : Lossy
Bits/(Pixel*Frame) : 0.246
Stream size : 1.15 GiB (85%)
Writing library : DivX 6.7.0 (UTC 2007-09-20)

Audio
ID : 1
Format : AC-3
Format/Info : Audio Coding 3
Mode extension : CM (complete main)
Format settings, Endianness : Big
Codec ID : 2000
Duration : 1 h 6 min
Bit rate mode : Constant
Bit rate : 448 kb/s
Channel(s) : 6 channels
Channel positions : Front: L C R, Side: L R, LFE
Sampling rate : 48.0 kHz
Frame rate : 31.250 FPS (1536 spf)
Compression mode : Lossy
Stream size : 213 MiB (15%)
Alignment : Split accross interleaves
Interleave, duration : 96 ms (2.40 video frames)
Interleave, preload duration : 96 ms
Language : Russian
Скриншоты:
piratbit.pw



Скачать Новогодние приключения Маши и Вити через торрент http://i1.imageban.ru/out/2016/10/11/c1c4503db72f16515e88f1d6b2c80288.jpg Скачать фильм Новогодние приключения Маши и Вити через торрент бесплантно в хорошем качестве Описание: Они такие разные - младшеклассники Витя, верящий только в технику, и Маша, верящая в чудеса. Вместе с другими ребятами они ... 10 10 3
Торрент: Зарегистрирован [2016-10-11 12:02] · скачан: 343 раз
Статус: √ проверено
Размер: 1.37 GB
Как cкачать? Как скачать Новогодние приключения Маши и Вити через торрент | qTorrent

28-11-2019 20:33  

Отключить всю рекламу на сайте

    Дорогой пользователь! Огромная просьба, поблагодарите релизера, оцените раздачу и оставьте свои комментарий, если Вы скачали Новогодние приключения Маши и Вити через торрент бесплатно! Внесите свою лепту в развитие PiratBit!
    Комментировать посты могут только пользователи прошедшие не сложную регистрацию
    Показать сообщения:    

    Новогодние приключения Маши и Вити через торрент
    Скачать бесплатно Новогодние приключения Маши и Вити
    Новогодние приключения Маши и Вити скачать торрент
    Новогодние приключения Маши и Вити смотреть онлайн
    Cкачать фильм Новогодние приключения Маши и Вити бесплатно
    Новогодние приключения Маши и Вити скачать торрент в хорошем качестве
    Новогодние приключения Маши и Вити смотреть онлайн бесплатно в хорошем качестве


    Вы не можете начинать темы
    Вы не можете отвечать на сообщения
    Вы не можете редактировать свои сообщения
    Вы не можете удалять свои сообщения
    Вы не можете голосовать в опросах
    Вы не можете прикреплять файлы к сообщениям
    Вы можете скачивать файлы