1 сезон

1 сезон

iTunes

1

КиноПоиск HD

Кинопоиск HD

iTunes

13

1 сезон

RePack

30

Новинка

ВАЖНО

ИГРА 18+

pack

RePack

MK11
pack

Легкие деньги

RePack

jed

RePack

fifa19

RePack

RDR2

RePack

NEED FOR SPEED™ PAYBACK

4 сезон

9 сезон

Бесстыжие 9 сезон

Все сериалы

все сериалы на PB.wtf

RePack

FAR CRY 5
  
Magnet ссылка

Чёрный ангел / Kuro no tenshi Vol. 1 (Такаси Исии) [1998, боевик, триллер, драма, криминал, BDRip 1080p by msltel] AVO piratbit.pw

Чёрный ангел через торрент piratbit.pw

Размер: 14.1 GB | Добавлен: 4 года 6 мес. назад | Торрент скачан:3 раза
Скачать  

09-10-2016 09:42 Чёрный ангел Скачать торрент  

Название: Чёрный ангел
Оригинальное название: Kuro no tenshi Vol. 1
Год выпуска: 1998
Страна: Япония
Жанр: боевик, триллер, драма, криминал
Продолжительность: 01:46:31
Перевод: авторский

Режиссёр: Такаси Исии

В ролях: Риона Хазуки, Рейко Такашима, Джинпачи Незу, Киппэй Сиина, Миюки Оно, Йошиюки Ямагути, Хидео Морита, Синго Цуруми, Рен Осуги, Дайскэ Иидзима, Норико Хаями, Рейко Катаока, Рубен Арвизу, Боб Бучольц, Питер Дойл, Дороти Элиас-Фан, Ребекка Форстадт, Уэнди Ли, Дэйв Маллоу, Николь Прэсли, Филис Семплер, Лия Сарджент, Джошуа Сет, Стив Стейли, Даг Стоун, Дэн Уорен

Описание: На глазах шестилетней Икко, дочери босса якудзы, были зверски убиты её отец и мать. Она тоже должна была разделить судьбу родителей, но, благодаря таинственной женщине-киллеру по прозвищу «Чёрный ангел», Икко удается ускользнуть от убийц. Девочку переправляют в США, где она воспитывается под надзором американской якудзы. А когда ей исполняется 20 лет, она возвращается в Японию, чтобы отомстить убийцам своих родителей. Теперь уже её зовут «Черным ангелом»...



Качество: BDRip 1080p Сравнение с исходником
Формат: MKV
Видео: MPEG-4 AVC, 17.3 Mбит/с, 1920x1080, 23,976 кадра/с
Аудио 1: русский, AC3, 192 kbps, 2 ch, 48 kHz [авторский, Антон Алексеев]
Аудио 2: японский, DTS, 1509 kbps, 2 ch, 48 kHz [оригинал]
Субтитры: английские
Общее
Уникальный идентификатор : 208185065284546682021789243370548060242 (0x9C9EFC30DC9F6194A8E7A8A0CA4D6052)
Полное имя : D:\Video\Чёрный ангел.1997.BDRip.1080p.mkv
Формат : Matroska
Версия формата : Version 4 / Version 2
Размер файла : 14,1 Гбайт
Продолжительность : 1 ч. 46 м.
Общий поток : 19,0 Мбит/сек
Дата кодирования : UTC 2016-10-09 03:12:12
Программа кодирования : mkvmerge v8.2.0 ('World of Adventure') 64bit
Библиотека кодирования : libebml v1.3.1 + libmatroska v1.4.2

Видео
Идентификатор : 1
Формат : AVC
Формат/Информация : Advanced Video Codec
Профиль формата : High@L4.1
Параметр CABAC формата : Да
Параметр ReFrames формата : 4 кадра
Идентификатор кодека : V_MPEG4/ISO/AVC
Продолжительность : 1 ч. 46 м.
Битрейт : 17,3 Мбит/сек
Ширина : 1920 пикселей
Высота : 1080 пикселей
Соотношение сторон : 16:9
Режим частоты кадров : Постоянный
Частота кадров : 23,976 (24000/1001) кадра/сек
Цветовое пространство : YUV
Субдискретизация насыщенности : 4:2:0
Битовая глубина : 8 бит
Тип развёртки : Прогрессивная
Бит/(Пиксели*Кадры) : 0.347
Размер потока : 12,8 Гбайт (91%)
Библиотека кодирования : x264 core 146 r2538 121396c
Настройки программы : cabac=1 / ref=4 / deblock=1:-2:-2 / analyse=0x3:0x113 / me=umh / subme=10 / psy=1 / psy_rd=1.00:0.15 / mixed_ref=1 / me_range=32 / chroma_me=1 / trellis=2 / 8x8dct=1 / cqm=0 / deadzone=21,11 / fast_pskip=1 / chroma_qp_offset=-3 / threads=6 / lookahead_threads=1 / sliced_threads=0 / nr=0 / decimate=1 / interlaced=0 / bluray_compat=0 / constrained_intra=0 / bframes=7 / b_pyramid=2 / b_adapt=2 / b_bias=0 / direct=1 / weightb=1 / open_gop=0 / weightp=2 / keyint=230 / keyint_min=23 / scenecut=40 / intra_refresh=0 / rc_lookahead=40 / rc=crf / mbtree=0 / crf=19.4 / qcomp=0.60 / qpmin=0 / qpmax=69 / qpstep=4 / vbv_maxrate=40000 / vbv_bufsize=50000 / crf_max=0.0 / nal_hrd=none / filler=0 / ip_ratio=1.40 / pb_ratio=1.30 / aq=1:1.00
Язык : Japanese
Default : Да
Forced : Нет

Аудио #1
Идентификатор : 2
Формат : AC-3
Формат/Информация : Audio Coding 3
Расширение режима : CM (complete main)
Параметр Endianness формата : Big
Идентификатор кодека : A_AC3
Продолжительность : 1 ч. 46 м.
Вид битрейта : Постоянный
Битрейт : 192 Кбит/сек
Каналы : 2 канала
Расположение каналов : Front: L R
Частота : 48,0 КГц
Частота кадров : 31,250 кадров/сек (1536 spf)
Метод сжатия : С потерями
Размер потока : 146 Мбайт (1%)
Заголовок : AVO (Антон Алексеев)
Язык : Russian
Default : Да
Forced : Нет

Аудио #2
Идентификатор : 3
Формат : DTS
Формат/Информация : Digital Theater Systems
Режим : 16
Параметр Endianness формата : Big
Идентификатор кодека : A_DTS
Продолжительность : 1 ч. 46 м.
Вид битрейта : Постоянный
Битрейт : 1509 Кбит/сек
Каналы : 2 канала
Расположение каналов : Front: L R
Частота : 48,0 КГц
Частота кадров : 93,750 кадра/сек (512 spf)
Битовая глубина : 16 бит
Метод сжатия : С потерями
Размер потока : 1,12 Гбайт (8%)
Заголовок : original
Язык : Japanese
Default : Нет
Forced : Нет

Текст
Идентификатор : 4
Формат : UTF-8
Идентификатор кодека : S_TEXT/UTF8
Идентификатор кодека/Информация : UTF-8 Plain Text
Продолжительность : 1 ч. 45 м.
Битрейт : 20 бит/сек
Count of elements : 598
Размер потока : 15,5 Кбайт (0%)
Заголовок : английские
Язык : English
Default : Нет
Forced : Нет
piratbit.pw



Скачать Чёрный ангел через торрент http://s56.radikal.ru/i154/1610/14/91882e1aec2f.jpg Скачать фильм Чёрный ангел через торрент бесплантно в хорошем качестве Описание: На глазах шестилетней Икко, дочери босса якудзы, были зверски убиты её отец и мать. Она тоже должна была разделить судьбу ... 10 10 2
Info! Золотая раздача, скачанное не засчитывается.
Торрент: Зарегистрирован [2016-10-09 09:42] · скачан: 3 раз
Статус: √ проверено
Размер: 14.1 GB
Как cкачать? Как скачать Чёрный ангел через торрент | UTorrent

% Раздел Тема Автор DL S | L
Фильмы с авторской озвучкой [ 5.17 GB ] Чёрный ангел / Kuro no tenshi Vol. 1 [1998 BDRip 720p by msltel] AVO msltel Скачать
1 | 0

28-11-2019 20:33  

Отключить всю рекламу на сайте

    Дорогой пользователь! Огромная просьба, поблагодарите релизера, оцените раздачу и оставьте свои комментарий, если Вы скачали Чёрный ангел через торрент бесплатно! Внесите свою лепту в развитие PiratBit!
    Комментировать посты могут только пользователи прошедшие не сложную регистрацию
    Показать сообщения:    

    Чёрный ангел через торрент
    Скачать бесплатно Чёрный ангел
    Чёрный ангел скачать торрент
    Чёрный ангел смотреть онлайн
    Cкачать фильм Чёрный ангел бесплатно
    Чёрный ангел скачать торрент в хорошем качестве
    Чёрный ангел смотреть онлайн бесплатно в хорошем качестве


    Вы не можете начинать темы
    Вы не можете отвечать на сообщения
    Вы не можете редактировать свои сообщения
    Вы не можете удалять свои сообщения
    Вы не можете голосовать в опросах
    Вы не можете прикреплять файлы к сообщениям
    Вы можете скачивать файлы