Ссылка на приватное зеркало нашего сайта всего за 1$. Внимание количество ограничено!!!

2 сезон

iTunes

iTunes

1

iTunes

iTunes

iTunes

WEBRip

iTunes

30
pack

Вам бонус

ВАЖНО

!!Акция!!

Alien_RageХит недели

RePack

Horizon Zero Dawn

ИГРА 18+

pack

RePack

jed

!!Акция!!

Alien_Rage

RePack

fifa19

RePack

Assassins Creed: Odyssey

RePack

NEED FOR SPEED™ PAYBACK

4 сезон

9 сезон

Бесстыжие 9 сезон

Все сериалы

все сериалы на PB.wtf

RePack

FAR CRY 5
  

Ночные стражи (Эмилис Веливис) [2016, фэнтези, боевик, WEB-DL 1080p] Оригинал [iTunes] piratbit.pw

Ночные стражи через торрент piratbit.pw

Размер: 3.48 GB | Добавлен: 3 года 11 мес. назад | Торрент скачан:1119 раз
Скачать  

05-10-2016 23:06 Ночные стражи Скачать торрент  

Ночные стражи
««Отдел борьбы с нечистью ждет новую кровь»»


Год выпуска: 2016
Страна: Россия
Жанр: фэнтези, боевик

Продолжительность: 01:36:47
Перевод: Оригинал [iTunes]
Режиссер: Эмилис Веливис
В ролях:

Иван Янковский (Павел), Любовь Аксенова, Леонид Ярмольник, Михаил Евланов, Сабина Ахмедова, Константин Адаев (Кирилл), Юрий Ваксман (Кондаков), Алексей Дмитриев (Михал), Денис Бузин (Портье), Евгений Косырев (Димыч), Прадьюмна Чаттерджи (постоялец), Михаил Самота (вампир)
Описание:
Оборотни, упыри и ведьмы - существуют. Если вы до сих пор не сталкивались с ними, то это заслуга отдела по надзору за представителями альтернативной жизни.
Мировая премьера: 2 сентября 2016

Качество: WEB-DL 1080p

Формат: MKV
Видео №1: AVC, 1920x806 (2.40:1), 4600 kbps, 25 fps, 0,119 bpp
Видео №2: V_QUICKTIME, 640x268 (2.40:1), 4 kbps, 0,003 fps, 8,940 bpp
Аудио №1: русский / AAC LC / 2.0 / 48 kHz / 158 kbps / ||
Аудио №2: русский / AC3 / 5.1 / 48 kHz / 384 kbps / ||

Код:

General
Unique ID                                : 224458075418957178283275482167525279596 (0xA8DD0D88F256AEC4B856BB0BA518876C)
Complete name                            : E:\H04HYe.CtPagi.2o16.D.WEB-DL.1O8Op.mkv
Format                                   : Matroska
Format version                           : Version 2
File size                                : 3.48 GiB
Duration                                 : 1 h 36 min
Overall bit rate                         : 5 150 kb/s
Encoded date                             : UTC 2016-10-05 18:06:29
Writing application                      : mkvmerge v8.3.0 ('Over the Horizon') 64bit
Writing library                          : libebml v1.3.1 + libmatroska v1.4.2

Video #1
ID                                       : 2
Format                                   : AVC
Format/Info                              : Advanced Video Codec
Format profile                           : High@L4
Format settings, CABAC                   : Yes
Format settings, ReFrames                : 5 frames
Codec ID                                 : V_MPEG4/ISO/AVC
Duration                                 : 1 h 36 min
Bit rate                                 : 4 600 kb/s
Width                                    : 1 920 pixels
Height                                   : 806 pixels
Display aspect ratio                     : 2.40:1
Frame rate mode                          : Constant
Frame rate                               : 25.000 FPS
Color space                              : YUV
Chroma subsampling                       : 4:2:0
Bit depth                                : 8 bits
Scan type                                : Progressive
Bits/(Pixel*Frame)                       : 0.119
Stream size                              : 3.11 GiB (89%)
Language                                 : English
Default                                  : Yes
Forced                                   : No
Color range                              : Limited
Color primaries                          : BT.709
Transfer characteristics                 : BT.709
Matrix coefficients                      : BT.709

Video #2
ID                                       : 3
Format                                   : V_QUICKTIME
Codec ID                                 : V_QUICKTIME
Duration                                 : 1 h 31 min
Bit rate                                 : 4 600 b/s
Width                                    : 640 pixels
Height                                   : 268 pixels
Display aspect ratio                     : 2.40:1
Frame rate mode                          : Constant
Frame rate                               : 0.003 FPS
Bits/(Pixel*Frame)                       : 8.940
Stream size                              : 3.00 MiB (0%)
Default                                  : No
Forced                                   : No

Audio #1
ID                                       : 1
Format                                   : AAC
Format/Info                              : Advanced Audio Codec
Format profile                           : LC
Codec ID                                 : A_AAC
Duration                                 : 1 h 36 min
Bit rate                                 : 159 kb/s
Channel(s)                               : 2 channels
Channel positions                        : Front: L R
Sampling rate                            : 48.0 kHz
Frame rate                               : 46.875 FPS (1024 spf)
Compression mode                         : Lossy
Stream size                              : 110 MiB (3%)
Language                                 : Russian
Default                                  : Yes
Forced                                   : No

Audio #2
ID                                       : 4
Format                                   : AC-3
Format/Info                              : Audio Coding 3
Mode extension                           : CM (complete main)
Format settings, Endianness              : Big
Codec ID                                 : A_AC3
Duration                                 : 1 h 36 min
Bit rate mode                            : Constant
Bit rate                                 : 384 kb/s
Channel(s)                               : 6 channels
Channel positions                        : Front: L C R, Side: L R, LFE
Sampling rate                            : 48.0 kHz
Frame rate                               : 31.250 FPS (1536 spf)
Compression mode                         : Lossy
Stream size                              : 266 MiB (7%)
Language                                 : Russian
Default                                  : No
Forced                                   : No

Menu
00:00:00.000                             : en:Глава 1
00:05:21.600                             : en:Глава 2
00:10:34.720                             : en:Глава 3
00:16:12.680                             : en:Глава 4
00:22:16.080                             : en:Глава 5
00:28:47.480                             : en:Глава 6
00:34:50.200                             : en:Глава 7
00:41:29.880                             : en:Глава 8
00:47:19.480                             : en:Глава 9
00:54:12.520                             : en:Глава 10
01:00:01.600                             : en:Глава 11
01:06:19.440                             : en:Глава 12
01:12:22.320                             : en:Глава 13
01:18:35.320                             : en:Глава 14
01:25:03.440                             : en:Глава 15


© Оформление by White Smoke piratbit.pw



Скачать Ночные стражи через торрент http://i4.imageban.ru/out/2016/10/06/65713100b550a257195cf8dc36203b34.jpg Скачать фильм Ночные стражи через торрент бесплантно в хорошем качестве Описание: Оборотни, упыри и ведьмы - существуют. Если вы до сих пор не сталкивались с ними, то это заслуга отдела по надзору за ... 9.4 10 33
Info! Золотая раздача, скачанное не засчитывается.
Торрент: Зарегистрирован [2016-10-05 23:07] · скачан: 1 119 раз
Статус: √ проверено
Размер: 3.48 GB
Как cкачать? Как скачать Ночные стражи через торрент | qTorrent

% Раздел Тема Автор DL S | L
Наши фильмы (Blu-ray, BD-Remux, HDDVD) [ 18.9 GB ] Ночные стражи [2016 BD Remux 1080p] [GER Transfer] [] bober100 Скачать
1 | 0
Наши фильмы (Blu-ray, BD-Remux, HDDVD) [ 22.31 GB ] Ночные стражи [2016 Blu-ray 1080p] [GER Transfer] [] bober100 Скачать
1 | 0
Наши фильмы (HD, WEB-DL 720p, 1080p) [ 3.37 GB ] Ночные стражи [2016 BDRip 720p] - ExKinoRay Enigma2010 Скачать
1 | 0
Наши новые фильмы 2016 [ 1.17 GB ] Ночные стражи [2016 WEB-DLRip-AVC] Оригинал White Smoke Скачать
1 | 0
T Релизы по Парсеру [Игры, Сериалы и Фильмы и другое...] [ 746 MB ] Ночные стражи [2016 WEB-DLRip] / Sherif Скачать
1 | 0
Мультфильмы (48-60 fps) [ 6.68 GB ] Легенды ночных стражей / Legend of the Guardians: The Owls of Ga’Hoole 60FPS [2010 Австралия мультфильм BDRip 720p [] KEYS Скачать
1 | 0

28-11-2019 20:33  

Отключить всю рекламу на сайте

06-10-2016 04:18 Ночные стражи Скачать торрент  

Это и вправду кто-то собирается смотреть?piratbit.pw



06-10-2016 05:24 Ночные стражи Скачать торрент  

olgertson писал(а):

Это и вправду кто-то собирается смотреть?

многие кто обсирал посмотрев хвалят!!! :)piratbit.pw



06-10-2016 05:25 Ночные стражи Скачать торрент  

жуткая чушь.А кабан на паркинге вообще порадовал.С какого мультика его слямзили,никак не вспомню))))))) piratbit.pw



06-10-2016 05:54 Ночные стражи Скачать торрент  

olgertson писал(а):

Это и вправду кто-то собирается смотреть?

Попробуюpiratbit.pw



06-10-2016 06:41 Ночные стражи Скачать торрент  

Видео №1: AVC, 1920x806 (2.40:1), 4600 kbps, 25 fps, 0,119 bpp
Видео №2: V_QUICKTIME, 640x268 (2.40:1), 4 kbps, 0,003 fps, 8,940 bpp
Ночные стражи через торрент Аудио №1: русский / AAC LC / 2.0 / 48 kHz / 158 kbps / ||
Ночные стражи через торрент Аудио №2: русский / AC3 / 5.1 / 48 kHz / 384 kbps / ||

Видео №2: V_QUICKTIME, 640x268 (2.40:1), 4 kbps, 0,003 fps, 8,940 bpp
а что это???piratbit.pw



09-10-2016 13:27 Ночные стражи Скачать торрент  

фильм отличный типа призрачного патруля с райаном рейнольдсомpiratbit.pw



10-10-2016 15:56 Ночные стражи Скачать торрент  

olgertson писал(а):

Это и вправду кто-то собирается смотреть?

Уже посмотрели и не пожалели :)
Для Российского кинематографа даже очень не плохо!piratbit.pw



13-10-2016 11:02 Ночные стражи Скачать торрент  

Для русского фильма довольно неплохо. На разок посмотреть пойдет)piratbit.pw



25-10-2016 21:59 Ночные стражи Скачать торрент  

Если будет 2 часть, то и её посмотрю!!Спасибо за фильм, мне понравился!)Как сказали ранее, ;для русского кинематографа очень даже не плохо;!!piratbit.pw



02-11-2016 18:52 Ночные стражи Скачать торрент  

Значит,надо качать...piratbit.pw



23-12-2016 08:01 Ночные стражи Скачать торрент  

Неужели русские научились снимать фильмы?!.Мне понравился фильм!piratbit.pw



    Дорогой пользователь! Огромная просьба, поблагодарите релизера, оцените раздачу и оставьте свои комментарий, если Вы скачали Ночные стражи через торрент бесплатно! Внесите свою лепту в развитие PiratBit!
    Комментировать посты могут только пользователи прошедшие не сложную регистрацию
    Показать сообщения:    

    Ночные стражи через торрент
    Скачать бесплатно Ночные стражи
    Ночные стражи скачать торрент
    Ночные стражи смотреть онлайн
    Cкачать фильм Ночные стражи бесплатно
    Ночные стражи скачать торрент в хорошем качестве
    Ночные стражи смотреть онлайн бесплатно в хорошем качестве


    Вы не можете начинать темы
    Вы не можете отвечать на сообщения
    Вы не можете редактировать свои сообщения
    Вы не можете удалять свои сообщения
    Вы не можете голосовать в опросах
    Вы не можете прикреплять файлы к сообщениям
    Вы можете скачивать файлы