1 сезон

1 сезон

iTunes

1

iTunes

Кинопоиск HD

iTunes

13

1 сезон

RePack

30

Deluxe

ВАЖНО

ИГРА 18+

pack

RePack

MK11
pack

Легкие деньги

RePack

jed

RePack

fifa19

RePack

RDR2

RePack

NEED FOR SPEED™ PAYBACK

4 сезон

9 сезон

Бесстыжие 9 сезон

Все сериалы

все сериалы на PB.wtf

RePack

FAR CRY 5
  
Magnet ссылка

Хроника затмения / Мутанты вампиры-зомби из черного квартала / Mutant Vampire Zombies from the 'Hood! / The Undead (Тундер Левин) [2008, ужасы, боевик, комедия, DVDRip] DVO R5 piratbit.pw

Хроника затмения через торрент piratbit.pw

Размер: 1.46 GB | Добавлен: 4 года 7 мес. назад | Торрент скачан:36 раз
Скачать  

05-10-2016 13:36 Хроника затмения Скачать торрент  

Хроника затмения / Мутанты вампиры-зомби из черного квартала / Mutant Vampire Zombies from the 'Hood! / The Undead



Год выпуска: 2008
Страна: США
Жанр: Ужасы, боевик, комедия
Продолжительность: 01:17:57
Перевод: Профессиональный (двухголосый) R5

Режиссер: Thunder Levin
Студия:STORMFRONT-FILMS

В ролях: С. Томас Хауэлл, Тайшон Брайант,
Рейчел Монтез Коллинз,Джоанна Ваттс, Роберт Вул, Брайн Трэнсо

Описание: Полицейский решает раз и навсегда покончить с беспределом
наркоторговцев и, узнав об очередной готовящейся криминальной сделке, незамедлительно
отправляется на место её проведения — прямо в лос-анджелесские доки. Однако во время
проведения операции над городом пролетает некая комета, которая быстро превращает всех
находившихся на улицах в жадных до плоти зомби. В таких условиях спастись в одиночку становится
затруднительно, так что Дэвиду приходится объединить усилия со своими недавними врагами.

(Реклама отсутствует)


Качество: DVDRip
Формат: AVI
Видео кодек: XviD
Аудио кодек: AC3
Видео: Xvid, 720x400(16/9) v 25.000, fps, 2283 kbps
Аудио#1: AC-3,48 kHz,6 каналов,384 kbps

rating


Общее
Полное имя : D:\релиз кино\Mutant.Vampire.Zombies.from.the.Hood!.2008.DVDRip.Xvid.AC3-Zombie.Lee.avi
Формат : AVI
Формат/Информация : Audio Video Interleave
Размер файла : 1,46 Гбайт
Продолжительность : 1 ч. 17 м.
Общий поток : 2677 Кбит/сек
Библиотека кодирования : VirtualDub build 33790/release

Видео
Идентификатор : 0
Формат : MPEG-4 Visual
Профиль формата : Advanced Simple@L5
Параметр BVOP формата : 1
Параметр QPel формата : Нет
Параметр GMC формата : Без точки перехода
Параметр матрицы формата : Выборочная
Идентификатор кодека : XVID
Идентификатор кодека/Подсказка : XviD
Продолжительность : 1 ч. 17 м.
Битрейт : 2283 Кбит/сек
Ширина : 720 пикселей
Высота : 400 пикселей
Соотношение сторон : 16:9
Частота кадров : 25,000 кадров/сек
Цветовое пространство : YUV
Субдискретизация насыщенности : 4:2:0
Битовая глубина : 8 бит
Тип развёртки : Прогрессивная
Метод сжатия : С потерями
Бит/(Пиксели*Кадры) : 0.317
Размер потока : 1,24 Гбайт (85%)
Библиотека кодирования : XviD 64

Аудио
Идентификатор : 1
Формат : AC-3
Формат/Информация : Audio Coding 3
Расширение режима : CM (complete main)
Параметр Endianness формата : Big
Идентификатор кодека : 2000
Продолжительность : 1 ч. 17 м.
Вид битрейта : Постоянный
Битрейт : 384 Кбит/сек
Каналы : 6 каналов
Расположение каналов : Front: L C R, Side: L R, LFE
Частота : 48,0 КГц
Частота кадров : 31,250 кадров/сек (1536 spf)
Метод сжатия : С потерями
Размер потока : 214 Мбайт (14%)
Выравнивание : Соединение по промежуткам
Продолжительность промежутка : 40 мс. (1,00 видеокадр)
Время предзагрузки промежутка : 512 мс.
скриншот  скриншот  скриншот  
piratbit.pw



Скачать Хроника затмения через торрент https://pic1.kartinco.top/images/10/yln1d.jpg Скачать фильм Хроника затмения через торрент бесплантно в хорошем качестве Описание: Полицейский решает раз и навсегда покончить с беспределомнаркоторговцев и, узнав об очередной готовящейся криминальной сделке, ... 9.9 10 8
Info! Золотая раздача, скачанное не засчитывается.
Торрент: Зарегистрирован [2016-10-05 13:36] · скачан: 36 раз
Статус: √ проверено
Размер: 1.46 GB
Как cкачать? Как скачать Хроника затмения через торрент | UTorrent



Последний раз редактировалось: DJASFUL (2016-10-06 13:06), всего редактировалось 2 раз(а)

28-11-2019 20:33  

Отключить всю рекламу на сайте

05-10-2016 14:48 Хроника затмения Скачать торрент  

Мутанты вампиры-зомби из черного квартала?!?!?

Теперь я видел всё piratbit.pw



05-10-2016 15:23 Хроника затмения Скачать торрент  

Наверно,Агонь фильм piratbit.pw



05-10-2016 15:30 Хроника затмения Скачать торрент  

Фильм не просто огонь ) а ядерная бомба )) для своего года
Про зомби бюджетных фильмов много выпускают )а дорогих мало ! А жанр прикольный! Так можно посмотреть ) Удачи Критики piratbit.pw





Последний раз редактировалось: DJASFUL (2016-10-05 20:20), всего редактировалось 1 раз

05-10-2016 18:11 Хроника затмения Скачать торрент  

JoraPoker писал(а):

Мутанты вампиры-зомби из черного квартала?!?!?

Теперь я видел всё

над городом пролетает некая комета... это был КАЙ МЕТОВ!!! position number one - отдыхаю сам (и другим даю!!!), он всех и заразил, гад! ну ребята, это уже перебор! даже не смешно. как им бабки дают такую :%;"*"% снимать?!!! а эти черные совсем распоясались! вместо того чтобы попивать сок (томатный) у себя в квартале, злобно мутируют в вампиров-зомби (так круче, просто зомби уже не вставляет) да еще и под действием КОМЕТЫ :%;№"!!!! ну КАК!!! :%;№ от кометы можно стать вампиром? или осколки кометы кусают прям на лету на скорости несколько километров в секунду черных братков прямо за шею своими гнилыми зубами??? это фильм года господа, оскара надо давать однозначно, уже за название. скачаю обязательно этот шЫдевр, давно так не смеялся от одного только названия... да, куда катится этот мир...piratbit.pw



05-10-2016 18:12 Хроника затмения Скачать торрент  

Сумрачный писал(а):

Наверно,Агонь фильм

сюда посмотри:

Рейтинг: 9.9 / 10 (7)

жэээээстьpiratbit.pw



05-10-2016 18:20 Хроника затмения Скачать торрент  

даужжж. посмотрел мегатрейлер в разрешении 240р. что сказать - все еще хуже чем я думал. "пациент скорее мертв чем жив", и "какая отвратительная рожа (причем ВСЕ)" - вот всё что приходит в голову от просмотра этого шедевра пиндосовского синематографа. что интересно, люди 50 лет назад мечтали о светлом будущем, а что получили? кризис, доллар по 65 рублей, отраву вместо продуктов в магазинах и вот такие "шЫдевры", после просмотра (да нет, ПЕРЕД просмотром!!!) которых хочется удавиться на собственных кишках, разрезав себе живот тупым хлебным ножом (для остроты ощущений). короче кто хочет смотреть подобный шлак - вперед и с песней, я пас.piratbit.pw



    Дорогой пользователь! Огромная просьба, поблагодарите релизера, оцените раздачу и оставьте свои комментарий, если Вы скачали Хроника затмения через торрент бесплатно! Внесите свою лепту в развитие PiratBit!
    Комментировать посты могут только пользователи прошедшие не сложную регистрацию
    Показать сообщения:    

    Хроника затмения через торрент
    Скачать бесплатно Хроника затмения
    Хроника затмения скачать торрент
    Хроника затмения смотреть онлайн
    Cкачать фильм Хроника затмения бесплатно
    Хроника затмения скачать торрент в хорошем качестве
    Хроника затмения смотреть онлайн бесплатно в хорошем качестве


    Вы не можете начинать темы
    Вы не можете отвечать на сообщения
    Вы не можете редактировать свои сообщения
    Вы не можете удалять свои сообщения
    Вы не можете голосовать в опросах
    Вы не можете прикреплять файлы к сообщениям
    Вы можете скачивать файлы