Marvel's Avengers Deluxe Edition (супер цена) 159р. Внимание количество ограничено!!!

2 сезон

iTunes

iTunes

1

iTunes

iTunes

iTunes

WEBRip

iTunes

30
pack

Новость дня

ВАЖНО

!!Акция!!

Alien_RageХит недели

RePack

Horizon Zero Dawn

ИГРА 18+

pack

RePack

jed

!!Акция!!

Alien_Rage

RePack

fifa19

RePack

Assassins Creed: Odyssey

RePack

NEED FOR SPEED™ PAYBACK

4 сезон

9 сезон

Бесстыжие 9 сезон

Все сериалы

все сериалы на PB.wtf

RePack

FAR CRY 5
  

Все о мужчинах (Михаил Жерневский, Леонид Марголин) [2016, комедия, WEB-DL 1080p, Оригинал [iTunes] piratbit.pw

Все о мужчинах через торрент piratbit.pw

Размер: 2.74 GB | Добавлен: 3 года 11 мес. назад | Торрент скачан:608 раз
Скачать  

02-10-2016 23:05 Все о мужчинах Скачать торрент  

Все о мужчинах


Год выпуска: 2016
Страна: Россия
Жанр: комедия
Продолжительность: 01:18:47
Перевод: Оригинал [iTunes]
Режиссер: Михаил Жерневский, Леонид Марголин
В ролях:

Дмитрий Нагиев, Анна Хилькевич, Игорь Верник, Сергей Белоголовцев, Грант Тохатян, Владимир Епифанцев, Екатерина Скулкина, Елена Борщева, Виктор Степанян, Ян Цапник, Елена Валюшкина, Станислав Ширин
Описание:
Это история о том, какими разными могут быть мужчины. О том, что мужчины - это, в первую очередь, сложные решения и настоящие поступки. О том, в чем мужчины могут быть сильны, а в чем комичны. О том, за что их можно и нужно любить...

Качество: WEB-DL 1080p

Формат: MKV
Видео: AVC, 1920x804 (2.40:1), 4591 kbps, 24 fps, 0,124 bpp
Аудио: русский / AC3 / 5.1 / 48 kHz / 384 kbps / ||

General
Unique ID : 175900400150243155236161173700338892307 (0x84552F4E4298D07C9722716841E5BE13)
Complete name : E:\BC10.0.Muzh41Hax.2016.O.WEB-DL.1080p.mkv
Format : Matroska
Format version : Version 4 / Version 2
File size : 2.74 GiB
Duration : 1 h 18 min
Overall bit rate : 4 978 kb/s
Movie name : ALL_ABOUT_MEN_WEB_DL_1080p-BLUEBIRD
Encoded date : UTC 2016-10-02 18:19:15
Writing application : mkvmerge v7.1.0 ('Good Love') 64bit built on Jul 27 2014 13:06:55
Writing library : libebml v1.3.0 + libmatroska v1.4.1

Video
ID : 1
Format : AVC
Format/Info : Advanced Video Codec
Format profile : High@L4
Format settings, CABAC : Yes
Format settings, ReFrames : 5 frames
Codec ID : V_MPEG4/ISO/AVC
Duration : 1 h 18 min
Bit rate : 4 592 kb/s
Width : 1 920 pixels
Height : 804 pixels
Display aspect ratio : 2.40:1
Frame rate mode : Constant
Frame rate : 24.000 FPS
Color space : YUV
Chroma subsampling : 4:2:0
Bit depth : 8 bits
Scan type : Progressive
Bits/(Pixel*Frame) : 0.124
Stream size : 2.53 GiB (92%)
Title : ALL_ABOUT_MEN_WEB_DL_1080p-BLUEBIRD
Language : Russian
Default : Yes
Forced : No
Color range : Limited
Color primaries : BT.709
Transfer characteristics : BT.709
Matrix coefficients : BT.709

Audio
ID : 2
Format : AC-3
Format/Info : Audio Coding 3
Mode extension : CM (complete main)
Format settings, Endianness : Big
Codec ID : A_AC3
Duration : 1 h 18 min
Bit rate mode : Constant
Bit rate : 384 kb/s
Channel(s) : 6 channels
Channel positions : Front: L C R, Side: L R, LFE
Sampling rate : 48.0 kHz
Frame rate : 31.250 FPS (1536 spf)
Compression mode : Lossy
Stream size : 216 MiB (8%)
Title : [DUB] DD 5.1 @ 384 kbps (iTunes)
Language : Russian
Default : Yes
Forced : No

Menu
00:00:00.000 : en:Глава 1
00:05:35.458 : en:Глава 2
00:10:38.499 : en:Глава 3
00:15:56.207 : en:Глава 4
00:21:03.165 : en:Глава 5
00:26:53.540 : en:Глава 6
00:32:01.956 : en:Глава 7
00:37:29.289 : en:Глава 8
00:42:48.080 : en:Глава 9
00:50:15.080 : en:Глава 10
00:56:15.038 : en:Глава 11
01:01:25.538 : en:Глава 12
01:09:01.288 : en:Глава 13

© Оформление by White Smoke piratbit.pw



Скачать Все о мужчинах через торрент http://i3.imageban.ru/out/2016/10/03/2489af20c71b6f5770da274e021481af.png Скачать фильм Все о мужчинах через торрент бесплантно в хорошем качестве Описание: Это история о том, какими разными могут быть мужчины. О том, что мужчины - это, в первую очередь, сложные решения и настоящие ... 7.4 10 14
Info! Золотая раздача, скачанное не засчитывается.
Торрент: Зарегистрирован [2016-10-02 23:05] · скачан: 608 раз
Статус: √ проверено
Размер: 2.74 GB
Как cкачать? Как скачать Все о мужчинах через торрент | qTorrent

% Раздел Тема Автор DL S | L
Наши новые фильмы 2016 [ 747 MB ] Все о мужчинах [2016 Россия BDRip-AVC от sokol_ok] [] sokol_ok Скачать
2 | 0
Наши новые фильмы 2016 [ 1.46 GB ] Все о мужчинах [2016 Россия BDRip-AVC от sokol_ok] [] sokol_ok Скачать
1 | 0
Наши новые фильмы 2017 [ 1.84 GB ] Все о мужчинах [2016 BDRip-AVC] Оригинал [] R.G.Resident schultz Скачать
1 | 0
Наши новые фильмы 2016 [ 1.46 GB ] Все о мужчинах [2016 BDRip-AVC от _denis_100 / NNNB] _denis_100 Скачать
1 | 0
Наши новые фильмы 2016 [ 1.46 GB ] Все о мужчинах [2016 BDRip] Оригинал [] Twi7ter Скачать
1 | 0
Фильмы (Blu-ray, BD-Remux, HDDVD) [ 19 GB ] Все о мужчинах [2016 Blu-Ray] Russian Mafia Скачать
1 | 0
Наши новые фильмы 2016 [ 1.46 GB ] Все о мужчинах [2016 WEB-DLRip] Twi7ter Скачать
1 | 0

28-11-2019 20:33  

Отключить всю рекламу на сайте

    Дорогой пользователь! Огромная просьба, поблагодарите релизера, оцените раздачу и оставьте свои комментарий, если Вы скачали Все о мужчинах через торрент бесплатно! Внесите свою лепту в развитие PiratBit!
    Комментировать посты могут только пользователи прошедшие не сложную регистрацию
    Показать сообщения:    

    Все о мужчинах через торрент
    Скачать бесплатно Все о мужчинах
    Все о мужчинах скачать торрент
    Все о мужчинах смотреть онлайн
    Cкачать фильм Все о мужчинах бесплатно
    Все о мужчинах скачать торрент в хорошем качестве
    Все о мужчинах смотреть онлайн бесплатно в хорошем качестве


    Вы не можете начинать темы
    Вы не можете отвечать на сообщения
    Вы не можете редактировать свои сообщения
    Вы не можете удалять свои сообщения
    Вы не можете голосовать в опросах
    Вы не можете прикреплять файлы к сообщениям
    Вы можете скачивать файлы