Ссылка на приватное зеркало нашего сайта всего за 1$. Внимание количество ограничено!!!

2 сезон

iTunes

iTunes

1

iTunes

iTunes

iTunes

WEBRip

iTunes

30
pack

Вам бонус

ВАЖНО

!!Акция!!

Alien_RageХит недели

RePack

Horizon Zero Dawn

ИГРА 18+

pack

RePack

jed

!!Акция!!

Alien_Rage

RePack

fifa19

RePack

Assassins Creed: Odyssey

RePack

NEED FOR SPEED™ PAYBACK

4 сезон

9 сезон

Бесстыжие 9 сезон

Все сериалы

все сериалы на PB.wtf

RePack

FAR CRY 5
  

Золушка (Надежда Кошеверова , Михаил Шапиро ) [1947, мюзикл, фэнтези, мелодрама, BDRip-AVC] цветной piratbit.pw

Золушка через торрент piratbit.pw

Размер: 1.45 GB | Добавлен: 3 года 11 мес. назад | Торрент скачан:55 раз
Скачать  

02-10-2016 20:25 Золушка Скачать торрент  

Золушка

Год выпуска: 1947
Страна: СССР
Жанр: мюзикл, фэнтези, мелодрама, комедия, семейный

Продолжительность: 01:21:50
Перевод: Не требуется [Русский]
Режиссер: Надежда Кошеверова , Михаил Шапиро
В ролях: Янина Жеймо (Золушка), Алексей Консовский (Принц), Эраст Гарин (Король), Фаина Раневская (Мачеха), Елена Юнгер (Анна, дочь мачехи), Тамара Сезеневская (Марьяна, дочь мачехи), Василий Меркурьев (Лесничий, отец Золушки), Александр Румнев (Па Де Труа), Варвара Мясникова (фея), Игорь Клименков (паж), Сергей Филиппов (Капрал, один из скороходов), Константин Адашевский (Герольд)
Описание:
Основа сюжета — старинный сказочный мотив о трудолюбивой Золушке, злой мачехе и ленивых сестрах. Разумеется, Шварцем переработанный и оживленный до уровня комедии, в которой есть и просто юмор, и злая сатира.
До сих пор этот нежный и добрый фильм продолжает радовать и удивлять больших и маленьких. А вы попробуйте не удивиться тому, что к вам в гости приходит волшебница со своим очаровательным пажом и мановением волшебной палочки превращает ваше рубище в бальное платье, а ваши опорки в хрустальные башмачки. Попробуйте просто и естественно усесться в золоченую тыкву, запряженную мышами, и в этой карете поехать на бал к королю. Попробуйте, наконец, танцевать со сказочным королем и влюбиться в волшебного принца.

Качество: BDRip-AVC
Формат: MKV
Видео: AVC, 880x640 (1.375), 2414 kbps, 23,976 fps, 0,179 bpp
Аудио: русский / AC3 / 1 / 48 kHz / 128 kbps /

General
Unique ID Zolushka_1947_BDRip_AVC.mkv
Format : Matroska
Format version : Version 2
File size : 1.45 GiB
Duration : 1 h 21 min
Overall bit rate : 2 544 kb/s
Movie name : ZOLUSHKA_1947_RUTRACKER.ORG
Encoded date : UTC 2016-10-02 06:43:21
Writing application : mkvmerge v3.4.0 ('Rapunzel') built on May 15 2010 09:38:20
Writing library : libebml v0.8.0 + libmatroska v0.9.0

Video
ID : 1
Format : AVC
Format/Info : Advanced Video Codec
Format profile : High@L4.1
Format settings, CABAC : Yes
Format settings, ReFrames : 10 frames
Codec ID : V_MPEG4/ISO/AVC
Duration : 1 h 21 min
Bit rate : 2 414 kb/s
Width : 880 pixels
Height : 640 pixels
Display aspect ratio : 1.375
Frame rate mode : Constant
Frame rate : 23.976 (24000/1001) FPS
Color space : YUV
Chroma subsampling : 4:2:0
Bit depth : 8 bits
Scan type : Progressive
Bits/(Pixel*Frame) : 0.179
Stream size : 1.35 GiB (93%)
Title : MPEG-4 (AVC)
Writing library : x264 core 148 r2705 3f5ed56
Encoding settings : cabac=1 / ref=10 / deblock=1:-2:-1 / analyse=0x3:0x133 / me=umh / subme=10 / psy=1 / psy_rd=1.00:0.15 / mixed_ref=1 / me_range=32 / chroma_me=1 / trellis=2 / 8x8dct=1 / cqm=0 / deadzone=21,11 / fast_pskip=0 / chroma_qp_offset=-3 / threads=3 / lookahead_threads=1 / sliced_threads=0 / nr=0 / decimate=1 / interlaced=0 / bluray_compat=0 / constrained_intra=0 / bframes=9 / b_pyramid=2 / b_adapt=2 / b_bias=0 / direct=3 / weightb=1 / open_gop=0 / weightp=2 / keyint=240 / keyint_min=23 / scenecut=40 / intra_refresh=0 / rc_lookahead=80 / rc=2pass / mbtree=1 / bitrate=2414 / ratetol=1.0 / qcomp=0.60 / qpmin=0 / qpmax=69 / qpstep=4 / cplxblur=20.0 / qblur=0.5 / ip_ratio=1.40 / aq=1:1.00
Language : Russian
Default : Yes
Forced : No

Audio
ID : 2
Format : AC-3
Format/Info : Audio Coding 3
Mode extension : CM (complete main)
Format settings, Endianness : Big
Codec ID : A_AC3
Duration : 1 h 21 min
Bit rate mode : Constant
Bit rate : 128 kb/s
Channel(s) : 1 channel
Channel positions : Front: C
Sampling rate : 48.0 kHz
Frame rate : 31.250 FPS (1536 spf)
Compression mode : Lossy
Stream size : 74.9 MiB (5%)
Title : AC3 1.0 @ 128 kbps
Language : Russian
Default : Yes
Forced : No
Скриншоты:
piratbit.pw



Скачать Золушка через торрент http://i5.imageban.ru/out/2016/10/02/edba6f1edb2bef0298e31a7e83433bed.jpg Скачать фильм Золушка через торрент бесплантно в хорошем качестве Описание: Основа сюжета — старинный сказочный мотив о трудолюбивой Золушке, злой мачехе и ленивых сестрах. Разумеется, Шварцем ... 10 10 1
Торрент: Зарегистрирован [2016-10-02 20:25] · скачан: 55 раз
Статус: √ проверено
Размер: 1.45 GB
Как cкачать? Как скачать Золушка через торрент | qTorrent

% Раздел Тема Автор DL S | L
Детские отечественные фильмы [ 2.78 GB ] Золушка [1947 мюзикл WEBRip 1080p] [ЦВЕТНАЯ] Полная версия WorldSM Скачать
1 | 0
Детские отечественные фильмы [ 8.21 GB ] Золушка [1947 СССР мюзикл BDRip 1080p] VintMosina Скачать
1 | 0
Детские отечественные фильмы [ 1.46 GB ] Золушка [1947 Сказка] L_E_X Скачать
1 | 0

28-11-2019 20:33  

Отключить всю рекламу на сайте

    Дорогой пользователь! Огромная просьба, поблагодарите релизера, оцените раздачу и оставьте свои комментарий, если Вы скачали Золушка через торрент бесплатно! Внесите свою лепту в развитие PiratBit!
    Комментировать посты могут только пользователи прошедшие не сложную регистрацию
    Показать сообщения:    

    Золушка через торрент
    Скачать бесплатно Золушка
    Золушка скачать торрент
    Золушка смотреть онлайн
    Cкачать фильм Золушка бесплатно
    Золушка скачать торрент в хорошем качестве
    Золушка смотреть онлайн бесплатно в хорошем качестве


    Вы не можете начинать темы
    Вы не можете отвечать на сообщения
    Вы не можете редактировать свои сообщения
    Вы не можете удалять свои сообщения
    Вы не можете голосовать в опросах
    Вы не можете прикреплять файлы к сообщениям
    Вы можете скачивать файлы