Ссылка на приватное зеркало нашего сайта всего за 1$. Внимание количество ограничено!!!

2 сезон

iTunes

iTunes

1

iTunes

iTunes

iTunes

WEBRip

iTunes

30
pack

Вам бонус

ВАЖНО

!!Акция!!

Alien_RageХит недели

RePack

Horizon Zero Dawn

ИГРА 18+

pack

RePack

jed

!!Акция!!

Alien_Rage

RePack

fifa19

RePack

Assassins Creed: Odyssey

RePack

NEED FOR SPEED™ PAYBACK

4 сезон

9 сезон

Бесстыжие 9 сезон

Все сериалы

все сериалы на PB.wtf

RePack

FAR CRY 5
  

Принцесса на горошине (Борис Рыцарев ) [1976, фэнтези, семейный, DVDRip-AVC] piratbit.pw

Принцесса на горошине через торрент piratbit.pw

Размер: 1.45 GB | Добавлен: 3 года 11 мес. назад | Торрент скачан:61 раз
Скачать  

01-10-2016 08:51 Принцесса на горошине Скачать торрент  

Принцесса на горошине

Год выпуска: 1976
Страна: СССР
Жанр: фэнтези, семейный

Продолжительность: 01:24:14
Перевод: Не требуется [Русский]
Субтитры: русский, английский
Режиссер: Борис Рыцарев
В ролях: Ирина Малышева (первая принцесса), Андрей Подошьян (принц), Иннокентий Смоктуновский (король), Алиса Фрейндлих (королева-мать), Ирина Юревич (вторая принцесса), Юрий Чекулаев (первый король), Александр Калягин (второй король), Василий Куприянов (свинопас), Игорь Кваша (тролль), Марина Либакова-Ливанова (третья принцесса), Светлана Орлова (четвертая принцесса), Евгений Стеблов
Описание:
По мотивам сказок Ганса Христиана Андерсена. Когда принцу пришла пора жениться, на воротах дворца появилось объявление: «Требуется принцесса». Но не дождался принц визита и отправился сам на поиски. Обойдя великое множество земель, принц вернулся домой, где вскоре и нашел ту, о которой мечтал.

Качество: DVDRip-AVC
Формат: MKV
Видео: AVC, 678@964x372 (2.591), 2276 kbps, 25 fps, 0,361 bpp
Аудио: русский / AC3 / 2.0 / 48 kHz / 192 kbps /

General
Unique ID Принцесса на горошине.1976.mkv
Format : Matroska
Format version : Version 2
File size : 1.45 GiB
Duration : 1 h 24 min
Overall bit rate : 2 470 kb/s
Encoded date : UTC 2015-11-15 19:26:20
Writing application : mkvmerge v5.8.0 ('No Sleep / Pillow') built on Sep 2 2012 15:37:04
Writing library : libebml v1.2.3 + libmatroska v1.3.0
Comment : DVDRip-AVC
Encoded by : george$t®
Originally released : November 15th 2015

Video
ID : 1
Format : AVC
Format/Info : Advanced Video Codec
Format profile : High@L4.1
Format settings, CABAC : Yes
Format settings, ReFrames : 16 frames
Codec ID : V_MPEG4/ISO/AVC
Duration : 1 h 24 min
Bit rate : 2 276 kb/s
Width : 678 pixels
Height : 372 pixels
Display aspect ratio : 2.591
Original display aspect ratio : 2.592
Frame rate mode : Constant
Frame rate : 25.000 FPS
Color space : YUV
Chroma subsampling : 4:2:0
Bit depth : 8 bits
Scan type : Progressive
Bits/(Pixel*Frame) : 0.361
Stream size : 1.31 GiB (90%)
Title : Принцесса на горошине.1976
Writing library : x264 core 148 r2579kMod 73ae2d1
Encoding settings : cabac=1 / ref=16 / deblock=1:-2:-1 / analyse=0x3:0x133 / me=umh / subme=11 / psy=1 / fade_compensate=0.00 / psy_rd=1.00:0.10 / mixed_ref=1 / me_range=48 / chroma_me=1 / trellis=2 / 8x8dct=1 / cqm=0 / deadzone=21,11 / fast_pskip=0 / chroma_qp_offset=-3 / threads=12 / lookahead_threads=2 / sliced_threads=0 / nr=0 / decimate=0 / interlaced=0 / bluray_compat=0 / constrained_intra=0 / fgo=0 / bframes=8 / b_pyramid=2 / b_adapt=2 / b_bias=0 / direct=3 / weightb=1 / open_gop=0 / weightp=2 / keyint=250 / keyint_min=25 / scenecut=40 / intra_refresh=0 / rc_lookahead=40 / rc=2pass / mbtree=0 / bitrate=2276 / ratetol=1.0 / qcomp=0.60 / qpmin=0 / qpmax=69 / qpstep=4 / cplxblur=20.0 / qblur=0.5 / vbv_maxrate=50000 / vbv_bufsize=62500 / nal_hrd=none / filler=0 / ip_ratio=1.30 / pb_ratio=1.25 / aq=2:0.75
Language : Russian
Default : Yes
Forced : No
Color range : Limited
Color primaries : BT.601 PAL
Transfer characteristics : BT.470 System B, BT.470 System G
Matrix coefficients : BT.601

Audio
ID : 2
Format : AC-3
Format/Info : Audio Coding 3
Mode extension : CM (complete main)
Format settings, Endianness : Big
Codec ID : A_AC3
Duration : 1 h 24 min
Bit rate mode : Constant
Bit rate : 192 kb/s
Channel(s) : 2 channels
Channel positions : Front: L R
Sampling rate : 48.0 kHz
Frame rate : 31.250 FPS (1536 spf)
Compression mode : Lossy
Stream size : 116 MiB (8%)
Title : Оригинал: AC-3; 16 bit 48 Khz; 2.0 ch 192 Kbps; CBR
Language : Russian
Default : Yes
Forced : No

Text #1
ID : 3
Format : UTF-8
Codec ID : S_TEXT/UTF8
Codec ID/Info : UTF-8 Plain Text
Title : Субтитры русские
Language : Russian
Default : No
Forced : No

Text #2
ID : 4
Format : UTF-8
Codec ID : S_TEXT/UTF8
Codec ID/Info : UTF-8 Plain Text
Title : Субтитры английские
Language : English
Default : No
Forced : No
Скриншоты:
piratbit.pw



Скачать Принцесса на горошине через торрент http://i2.imageban.ru/out/2016/10/01/e404b05cc2597ab0172ce881fca339ea.jpg Скачать фильм Принцесса на горошине через торрент бесплантно в хорошем качестве Описание: По мотивам сказок Ганса Христиана Андерсена. Когда принцу пришла пора жениться, на воротах дворца появилось объявление: ... 10 10 3
Info! Золотая раздача, скачанное не засчитывается.
Торрент: Зарегистрирован [2016-10-01 08:51] · скачан: 61 раз
Статус: √ проверено
Размер: 1.45 GB
Как cкачать? Как скачать Принцесса на горошине через торрент | qTorrent

% Раздел Тема Автор DL S | L
Детские отечественные фильмы [ 1.37 GB ] Принцесса на горошине [1976 Сказка DVDRip] -=Cherry=- Скачать
1 | 0

28-11-2019 20:33  

Отключить всю рекламу на сайте

    Дорогой пользователь! Огромная просьба, поблагодарите релизера, оцените раздачу и оставьте свои комментарий, если Вы скачали Принцесса на горошине через торрент бесплатно! Внесите свою лепту в развитие PiratBit!
    Комментировать посты могут только пользователи прошедшие не сложную регистрацию
    Показать сообщения:    

    Принцесса на горошине через торрент
    Скачать бесплатно Принцесса на горошине
    Принцесса на горошине скачать торрент
    Принцесса на горошине смотреть онлайн
    Cкачать фильм Принцесса на горошине бесплатно
    Принцесса на горошине скачать торрент в хорошем качестве
    Принцесса на горошине смотреть онлайн бесплатно в хорошем качестве


    Вы не можете начинать темы
    Вы не можете отвечать на сообщения
    Вы не можете редактировать свои сообщения
    Вы не можете удалять свои сообщения
    Вы не можете голосовать в опросах
    Вы не можете прикреплять файлы к сообщениям
    Вы можете скачивать файлы