Ссылка на приватное зеркало нашего сайта всего за 1$. Внимание количество ограничено!!!

2 сезон

iTunes

iTunes

1

iTunes

iTunes

iTunes

WEBRip

iTunes

30
pack

Новость дня

ВАЖНО

!!Акция!!

Alien_RageХит недели

RePack

Horizon Zero Dawn

ИГРА 18+

pack

RePack

jed

!!Акция!!

Alien_Rage

RePack

fifa19

RePack

Assassins Creed: Odyssey

RePack

NEED FOR SPEED™ PAYBACK

4 сезон

9 сезон

Бесстыжие 9 сезон

Все сериалы

все сериалы на PB.wtf

RePack

FAR CRY 5
  

Дорогой мальчик (Александр Стефанович ) [1974, комедия, TVRip-AVC] piratbit.pw

Дорогой мальчик через торрент piratbit.pw

Размер: 1.09 GB | Добавлен: 3 года 11 мес. назад | Торрент скачан:4 раза
Скачать  

30-09-2016 05:48 Дорогой мальчик Скачать торрент  

Дорогой мальчик

Год выпуска: 1974
Страна: СССР
Жанр: комедия

Продолжительность: 01:15:26
Перевод: Не требуется [Русский]
Режиссер: Александр Стефанович
В ролях: Сергей Крупенников (Джордж Роб-Робсон), Георгий Вицин (Макинтош), Александр Елистратов (Жора Тимохин), Владислав Стржельчик (Мак-Доннел), Виктор Гайнов (Томми), Расми Джабраилов (Френк), Сергей Мигицко (Билл), Ирен Азер (Жаклин), Александр Белявский (Кондрашин), Мария Ирд, Леонид Оболенский (Лейн), Юрий Гусев (комментатор)
Описание:
Вместе с Джорджем, сыном миллионера Роб-Робсона, в руки шайки гангстеров попадает советский школьник Жора Тимохин. Поняв свою ошибку, мошенники решают вернуть Жору. Однако мальчик не собирается оставлять друга в беде...

Качество: TVRip-AVC
Формат: MKV
Видео: AVC, 696@742x358 (2.073), 1874 kbps, 25 fps, 0,301 bpp
Аудио: русский / AAC LC / 2.0 / 48 kHz / 192 kbps /
Навигация по главам: есть

General
Unique ID Дорогой мальчик.1974.TVRip.mkv
Format : Matroska
Format version : Version 4 / Version 2
File size : 1.09 GiB
Duration : 1 h 15 min
Overall bit rate : 2 069 kb/s
Encoded date : UTC 2015-11-04 22:08:17
Writing application : mkvmerge v8.5.1 ('Where you lead I will follow') 64bit
Writing library : libebml v1.3.3 + libmatroska v1.4.4

Video
ID : 1
Format : AVC
Format/Info : Advanced Video Codec
Format profile : High@L4.1
Format settings, CABAC : Yes
Format settings, ReFrames : 16 frames
Codec ID : V_MPEG4/ISO/AVC
Duration : 1 h 15 min
Bit rate : 1 874 kb/s
Width : 696 pixels
Height : 358 pixels
Display aspect ratio : 2.073
Original display aspect ratio : 2.074
Frame rate mode : Constant
Frame rate : 25.000 FPS
Color space : YUV
Chroma subsampling : 4:2:0
Bit depth : 8 bits
Scan type : Progressive
Bits/(Pixel*Frame) : 0.301
Stream size : 1 011 MiB (91%)
Writing library : x264 core 148 r2597kMod e86f3a1
Encoding settings : cabac=1 / ref=16 / deblock=1:-1:-1 / analyse=0x3:0x133 / me=umh / subme=11 / psy=1 / fade_compensate=0.00 / psy_rd=1.00:0.00 / mixed_ref=1 / me_range=48 / chroma_me=1 / trellis=2 / 8x8dct=1 / cqm=0 / deadzone=21,11 / fast_pskip=0 / chroma_qp_offset=-2 / threads=1 / lookahead_threads=1 / sliced_threads=0 / nr=0 / decimate=0 / interlaced=0 / bluray_compat=0 / constrained_intra=0 / fgo=0 / bframes=12 / b_pyramid=2 / b_adapt=2 / b_bias=0 / direct=3 / weightb=1 / open_gop=0 / weightp=2 / keyint=250 / keyint_min=25 / scenecut=40 / intra_refresh=0 / rc_lookahead=60 / rc=2pass / mbtree=1 / bitrate=1874 / ratetol=1.0 / qcomp=0.60 / qpmin=0 / qpmax=69 / qpstep=4 / cplxblur=20.0 / qblur=0.5 / vbv_maxrate=50000 / vbv_bufsize=62500 / nal_hrd=none / filler=0 / ip_ratio=1.40 / aq=1:1.00
Language : English
Default : Yes
Forced : No
Color range : Limited
Color primaries : BT.601 PAL
Transfer characteristics : BT.470 System B, BT.470 System G
Matrix coefficients : BT.601

Audio
ID : 2
Format : AAC
Format/Info : Advanced Audio Codec
Format profile : LC
Codec ID : A_AAC
Duration : 1 h 15 min
Bit rate : 192 kb/s
Channel(s) : 2 channels
Channel positions : Front: L R
Sampling rate : 48.0 kHz
Frame rate : 46.875 FPS (1024 spf)
Compression mode : Lossy
Delay relative to video : 20 ms
Stream size : 104 MiB (9%)
Language : Russian
Default : Yes
Forced : No

Menu
00:00:00.000 : en:Chapter 01
00:10:00.000 : en:Chapter 02
00:20:00.000 : en:Chapter 03
00:30:00.000 : en:Chapter 04
00:40:00.000 : en:Chapter 05
00:50:00.000 : en:Chapter 06
01:00:00.000 : en:Chapter 07
01:10:00.000 : en:Chapter 08
Скриншоты:
piratbit.pw



Скачать Дорогой мальчик через торрент http://i4.imageban.ru/out/2016/09/30/af7ba5ebc6935fbfd35bd54aa6323853.jpg Скачать фильм Дорогой мальчик через торрент бесплантно в хорошем качестве Описание: Вместе с Джорджем, сыном миллионера Роб-Робсона, в руки шайки гангстеров попадает советский школьник Жора Тимохин. Поняв свою ... 10 10 3
Info! Золотая раздача, скачанное не засчитывается.
Торрент: Зарегистрирован [2016-09-30 05:48] · скачан: 4 раз
Статус: √ проверено
Размер: 1.09 GB
Как cкачать? Как скачать Дорогой мальчик через торрент | qTorrent

28-11-2019 20:33  

Отключить всю рекламу на сайте

    Дорогой пользователь! Огромная просьба, поблагодарите релизера, оцените раздачу и оставьте свои комментарий, если Вы скачали Дорогой мальчик через торрент бесплатно! Внесите свою лепту в развитие PiratBit!
    Комментировать посты могут только пользователи прошедшие не сложную регистрацию
    Показать сообщения:    

    Дорогой мальчик через торрент
    Скачать бесплатно Дорогой мальчик
    Дорогой мальчик скачать торрент
    Дорогой мальчик смотреть онлайн
    Cкачать фильм Дорогой мальчик бесплатно
    Дорогой мальчик скачать торрент в хорошем качестве
    Дорогой мальчик смотреть онлайн бесплатно в хорошем качестве


    Вы не можете начинать темы
    Вы не можете отвечать на сообщения
    Вы не можете редактировать свои сообщения
    Вы не можете удалять свои сообщения
    Вы не можете голосовать в опросах
    Вы не можете прикреплять файлы к сообщениям
    Вы можете скачивать файлы