Marvel's Avengers Deluxe Edition (супер цена) 159р. Внимание количество ограничено!!!

2 сезон

iTunes

iTunes

1

iTunes

iTunes

iTunes

WEBRip

iTunes

30
pack

Новость дня

ВАЖНО

!!Акция!!

Alien_RageХит недели

RePack

Horizon Zero Dawn

ИГРА 18+

pack

RePack

jed

!!Акция!!

Alien_Rage

RePack

fifa19

RePack

Assassins Creed: Odyssey

RePack

NEED FOR SPEED™ PAYBACK

4 сезон

9 сезон

Бесстыжие 9 сезон

Все сериалы

все сериалы на PB.wtf

RePack

FAR CRY 5
  

Девочка и крокодил (Иосиф Гиндин , Исаак Менакер ) [1956, комедия, семейный, SATRip-AVC] piratbit.pw

Девочка и крокодил через торрент piratbit.pw

Размер: 1.22 GB | Добавлен: 3 года 11 мес. назад | Торрент скачан:34 раза
Скачать  

30-09-2016 05:37 Девочка и крокодил Скачать торрент  

Девочка и крокодил

Год выпуска: 1956
Страна: СССР
Жанр: комедия, семейный

Продолжительность: 01:03:53
Перевод: Не требуется [Русский]
Режиссер: Иосиф Гиндин , Исаак Менакер
В ролях: Елена Грановская, Евгений Тетерин, Natalya Polinkovskaya, Наталья Забавная, Зоя Фёдорова, Леонид Львов, Людмила Макарова, Петр Репнин, Елизавета Уварова, Светлана Мазовецкая, Ричард Лойко, Татьяна Сукова
Описание:
История о юном натуралисте Мите, который однажды оставил своих питомцев на попечение маленькой девочки Кати. Она тоже любила животных, но совсем не умела правильно за ними ухаживать...

Качество: SATRip-AVC
Формат: MKV
Видео: AVC, 696@742x572, 2480 kbps, 25 fps, 0,249 bpp
Аудио: русский / AC3 / 2.0 / 48 kHz / 192 kbps /

General
Unique ID Девочка и крокодил.1956.mkv
Format : Matroska
Format version : Version 2
File size : 1.22 GiB
Duration : 1 h 3 min
Overall bit rate : 2 727 kb/s
Encoded date : UTC 2015-11-24 11:00:04
Writing application : mkvmerge v5.8.0 ('No Sleep / Pillow') built on Sep 2 2012 15:37:04
Writing library : libebml v1.2.3 + libmatroska v1.3.0
Comment : DVDRip-AVC
Encoded by : george$t®
Originally released : November 24th 2015

Video
ID : 1
Format : AVC
Format/Info : Advanced Video Codec
Format profile : High@L4.1
Format settings, CABAC : Yes
Format settings, ReFrames : 16 frames
Codec ID : V_MPEG4/ISO/AVC
Duration : 1 h 3 min
Bit rate : 2 481 kb/s
Width : 696 pixels
Height : 572 pixels
Display aspect ratio : 1.297
Original display aspect ratio : 1.298
Frame rate mode : Constant
Frame rate : 25.000 FPS
Color space : YUV
Chroma subsampling : 4:2:0
Bit depth : 8 bits
Scan type : Progressive
Bits/(Pixel*Frame) : 0.249
Stream size : 1.11 GiB (91%)
Title : Девочка и крокодил.1956
Writing library : x264 core 148 r2638kMod 7599210
Encoding settings : cabac=1 / ref=16 / deblock=1:-1:0 / analyse=0x3:0x113 / me=umh / subme=10 / psy=1 / fade_compensate=0.00 / psy_rd=1.00:0.00 / mixed_ref=1 / me_range=32 / chroma_me=1 / trellis=2 / 8x8dct=1 / cqm=0 / deadzone=21,11 / fast_pskip=1 / chroma_qp_offset=-2 / threads=12 / lookahead_threads=2 / sliced_threads=0 / nr=0 / decimate=1 / interlaced=0 / bluray_compat=0 / constrained_intra=0 / fgo=0 / bframes=7 / b_pyramid=2 / b_adapt=2 / b_bias=0 / direct=1 / weightb=1 / open_gop=0 / weightp=2 / keyint=250 / keyint_min=25 / scenecut=40 / intra_refresh=0 / rc_lookahead=40 / rc=crf / mbtree=0 / crf=18.6000 / qcomp=0.65 / qpmin=0 / qpmax=69 / qpstep=4 / vbv_maxrate=50000 / vbv_bufsize=62500 / crf_max=0.0 / nal_hrd=none / filler=0 / ip_ratio=1.30 / pb_ratio=1.30 / aq=1:0.90
Language : Russian
Default : Yes
Forced : No
Color range : Limited
Color primaries : BT.601 PAL
Transfer characteristics : BT.470 System B, BT.470 System G
Matrix coefficients : BT.601

Audio
ID : 2
Format : AC-3
Format/Info : Audio Coding 3
Mode extension : CM (complete main)
Format settings, Endianness : Big
Codec ID : A_AC3
Duration : 1 h 3 min
Bit rate mode : Constant
Bit rate : 192 kb/s
Channel(s) : 2 channels
Channel positions : Front: L R
Sampling rate : 48.0 kHz
Frame rate : 31.250 FPS (1536 spf)
Compression mode : Lossy
Stream size : 87.7 MiB (7%)
Title : AC-3; 16 bit 48 Khz; 2.0 ch 192 Kbps; CBR
Language : Russian
Default : Yes
Forced : No
Скриншоты:
piratbit.pw



Скачать Девочка и крокодил через торрент http://i6.imageban.ru/out/2016/09/30/98fce93655d67de92f8c1fd7d06eb259.jpg Скачать фильм Девочка и крокодил через торрент бесплантно в хорошем качестве Описание: История о юном натуралисте Мите, который однажды оставил своих питомцев на попечение маленькой девочки Кати. Она тоже любила ... 10 10 4
Info! Золотая раздача, скачанное не засчитывается.
Торрент: Зарегистрирован [2016-09-30 05:37] · скачан: 34 раз
Статус: √ проверено
Размер: 1.22 GB
Как cкачать? Как скачать Девочка и крокодил через торрент | qTorrent

% Раздел Тема Автор DL S | L
Кино СССР [ 745 MB ] Девочка и крокодил [1956 СССР SATRip-AVC от AVP Studio] AVP Studio Скачать
1 | 0
Кино СССР [ 742 MB ] Девочка и крокодил [1956 СССР SATRip от AVP Studio] AVP Studio Скачать
1 | 0

28-11-2019 20:33  

Отключить всю рекламу на сайте

    Дорогой пользователь! Огромная просьба, поблагодарите релизера, оцените раздачу и оставьте свои комментарий, если Вы скачали Девочка и крокодил через торрент бесплатно! Внесите свою лепту в развитие PiratBit!
    Комментировать посты могут только пользователи прошедшие не сложную регистрацию
    Показать сообщения:    

    Девочка и крокодил через торрент
    Скачать бесплатно Девочка и крокодил
    Девочка и крокодил скачать торрент
    Девочка и крокодил смотреть онлайн
    Cкачать фильм Девочка и крокодил бесплатно
    Девочка и крокодил скачать торрент в хорошем качестве
    Девочка и крокодил смотреть онлайн бесплатно в хорошем качестве


    Вы не можете начинать темы
    Вы не можете отвечать на сообщения
    Вы не можете редактировать свои сообщения
    Вы не можете удалять свои сообщения
    Вы не можете голосовать в опросах
    Вы не можете прикреплять файлы к сообщениям
    Вы можете скачивать файлы