Marvel's Avengers Deluxe Edition (супер цена) 159р. Внимание количество ограничено!!!

2 сезон

iTunes

iTunes

1

iTunes

iTunes

iTunes

WEBRip

iTunes

30
pack

Новость дня

ВАЖНО

!!Акция!!

Alien_RageХит недели

RePack

Horizon Zero Dawn

ИГРА 18+

pack

RePack

jed

!!Акция!!

Alien_Rage

RePack

fifa19

RePack

Assassins Creed: Odyssey

RePack

NEED FOR SPEED™ PAYBACK

4 сезон

9 сезон

Бесстыжие 9 сезон

Все сериалы

все сериалы на PB.wtf

RePack

FAR CRY 5
  

Кащей Бессмертный (Александр Роу ) [1944, детский, фэнтези, SATRip-AVC] piratbit.pw

Кащей Бессмертный через торрент piratbit.pw

Размер: 1.09 GB | Добавлен: 3 года 11 мес. назад | Торрент скачан:22 раза
Скачать  

29-09-2016 14:44 Кащей Бессмертный Скачать торрент  

Кащей Бессмертный

Год выпуска: 1944
Страна: СССР
Жанр: детский, фэнтези
Продолжительность: 01:03:39
Перевод: Не требуется [Русский]
Режиссер: Александр Роу
В ролях: Александр Ширшов (Булат Балагур), Георгий Милляр (Кащей Бессмертный), Сергей Столяров (Никита Кожемяка), Галина Григорьева (Марья Моревна), Сергей Филиппов (палач), Эммануил Геллер (стражник), Леонид Кровицкий (судья), Иван Рыжов (озорной парень), Сергей Троицкий (повелитель), Иван Бобров (стражник), Петр Галаджев (стражник), С. Юрцев (гусляр)
Описание:
Эпическая сказка, снятая в годы Второй Мировой войны. Русские богатыри Никита Кожемяка и Булат Балагур спасают землю русскую от вражьих полчищ Кащея Бессмертного и освобождают красавицу Марью Моревну.

Качество: SATRip-AVC
Формат: MKV
Видео: AVC, 696@759x572, 2258 kbps, 25 fps, 0,227 bpp
Аудио: AC3 / 2.0 / 48 kHz / 192 kbps /

General
Unique ID
Complete name Кащей Бессмертный.Оригинальная версия.SATRip-AVC.mkv
Format : Matroska
Format version : Version 2
File size : 1.09 GiB
Duration : 1 h 3 min
Overall bit rate : 2 452 kb/s
Encoded date : UTC 2016-01-02 20:55:50
Writing application : mkvmerge v6.1.0 ('Old Devil') built on Mar 4 2013 09:10:42
Writing library : libebml v1.3.0 + libmatroska v1.4.0

Video
ID : 1
Format : AVC
Format/Info : Advanced Video Codec
Format profile : High@L4.1
Format settings, CABAC : Yes
Format settings, ReFrames : 8 frames
Codec ID : V_MPEG4/ISO/AVC
Duration : 1 h 3 min
Bit rate : 2 258 kb/s
Width : 696 pixels
Height : 572 pixels
Display aspect ratio : 4:3
Frame rate mode : Constant
Frame rate : 25.000 FPS
Color space : YUV
Chroma subsampling : 4:2:0
Bit depth : 8 bits
Scan type : Progressive
Bits/(Pixel*Frame) : 0.227
Stream size : 1 007 MiB (90%)
Writing library : x264 core 130 r2273 b3065e6
Encoding settings : cabac=1 / ref=8 / deblock=1:0:0 / analyse=0x3:0x113 / me=umh / subme=9 / psy=1 / psy_rd=1.00:0.00 / mixed_ref=1 / me_range=24 / chroma_me=1 / trellis=2 / 8x8dct=1 / cqm=0 / deadzone=21,11 / fast_pskip=1 / chroma_qp_offset=-2 / threads=6 / lookahead_threads=1 / sliced_threads=0 / nr=0 / decimate=0 / interlaced=0 / bluray_compat=0 / constrained_intra=0 / bframes=8 / b_pyramid=2 / b_adapt=2 / b_bias=0 / direct=3 / weightb=1 / open_gop=0 / weightp=2 / keyint=250 / keyint_min=25 / scenecut=40 / intra_refresh=0 / rc_lookahead=40 / rc=2pass / mbtree=1 / bitrate=2258 / ratetol=1.0 / qcomp=0.60 / qpmin=0 / qpmax=69 / qpstep=4 / cplxblur=20.0 / qblur=0.5 / ip_ratio=1.40 / aq=1:1.00
Default : Yes
Forced : No

Audio
ID : 2
Format : AC-3
Format/Info : Audio Coding 3
Mode extension : CM (complete main)
Format settings, Endianness : Big
Codec ID : A_AC3
Duration : 1 h 3 min
Bit rate mode : Constant
Bit rate : 192 kb/s
Channel(s) : 2 channels
Channel positions : Front: L R
Sampling rate : 48.0 kHz
Frame rate : 31.250 FPS (1536 spf)
Compression mode : Lossy
Stream size : 87.4 MiB (8%)
Default : Yes
Forced : No
Скриншоты:
piratbit.pw



Скачать Кащей Бессмертный через торрент http://i1.imageban.ru/out/2016/09/29/1bcf4b5a17b33339ff901e6b781a85ef.jpg Скачать фильм Кащей Бессмертный через торрент бесплантно в хорошем качестве Описание: Эпическая сказка, снятая в годы Второй Мировой войны. Русские богатыри Никита Кожемяка и Булат Балагур спасают землю русскую от ... 10 10 6
Торрент: Зарегистрирован [2016-09-29 14:44] · скачан: 22 раз
Статус: √ проверено
Размер: 1.09 GB
Как cкачать? Как скачать Кащей Бессмертный через торрент | qTorrent

% Раздел Тема Автор DL S | L
Детские отечественные фильмы [ 5.84 GB ] Кащей Бессмертный [1944 / 2014 детский сказка WEBRip 720p от KORSAR] [Колоризованная версия] filbi1976 Скачать
1 | 0

28-11-2019 20:33  

Отключить всю рекламу на сайте

    Дорогой пользователь! Огромная просьба, поблагодарите релизера, оцените раздачу и оставьте свои комментарий, если Вы скачали Кащей Бессмертный через торрент бесплатно! Внесите свою лепту в развитие PiratBit!
    Комментировать посты могут только пользователи прошедшие не сложную регистрацию
    Показать сообщения:    

    Кащей Бессмертный через торрент
    Скачать бесплатно Кащей Бессмертный
    Кащей Бессмертный скачать торрент
    Кащей Бессмертный смотреть онлайн
    Cкачать фильм Кащей Бессмертный бесплатно
    Кащей Бессмертный скачать торрент в хорошем качестве
    Кащей Бессмертный смотреть онлайн бесплатно в хорошем качестве


    Вы не можете начинать темы
    Вы не можете отвечать на сообщения
    Вы не можете редактировать свои сообщения
    Вы не можете удалять свои сообщения
    Вы не можете голосовать в опросах
    Вы не можете прикреплять файлы к сообщениям
    Вы можете скачивать файлы