Marvel's Avengers Deluxe Edition (супер цена) 159р. Внимание количество ограничено!!!

2 сезон

iTunes

iTunes

1

iTunes

iTunes

iTunes

WEBRip

iTunes

30
pack

Новость дня

ВАЖНО

!!Акция!!

Alien_RageХит недели

RePack

Horizon Zero Dawn

ИГРА 18+

pack

RePack

jed

!!Акция!!

Alien_Rage

RePack

fifa19

RePack

Assassins Creed: Odyssey

RePack

NEED FOR SPEED™ PAYBACK

4 сезон

9 сезон

Бесстыжие 9 сезон

Все сериалы

все сериалы на PB.wtf

RePack

FAR CRY 5
  

Сказка о добре и вре... (Елена Шиляева ) [2013, детский, HDRip] piratbit.pw

Сказка о добре и вре... через торрент piratbit.pw

Размер: 1.44 GB | Добавлен: 3 года 11 мес. назад | Торрент скачан:17 раз
Скачать  

29-09-2016 14:27 Сказка о добре и вре... Скачать торрент  

Сказка о добре и вре...

Год выпуска: 2013
Страна: Россия
Жанр: детский
Продолжительность: 01:28:30
Перевод: Не требуется [Русский]
Режиссер: Елена Шиляева
Описание:
Трое современных ребят попадают в сказку, чтобы с помощью молодильных яблок вернуть молодость своей бабушке. Дети оказываются в стране Врандии, которой правит мадам Вра и ее помощники Ап и Оп. Здесь они встречают принцессу Труэ, которая мечтает возродить страну Верландию, которой так гордились когда-то сказочные жители...

Качество: HDRip
Формат: AVI
Видео: xvid, 720x400 (16:9), 2129 kbps, 25 fps, 0,296 bpp
Аудио: AC3 / 2.0 / 44 kHz / 192 kbps / 16 bit

General
Complete name \Skazka.O.Dobre.I.Vre.2013.O.HDRip.1400.avi
Format : AVI
Format/Info : Audio Video Interleave
Format profile : OpenDML
File size : 1.44 GiB
Duration : 1 h 28 min
Overall bit rate : 2 333 kb/s
Writing application : XviD4PSP 6.0 / 54.29.105

Video
ID : 0
Format : xvid
Codec ID : xvid
Duration : 1 h 28 min
Bit rate : 2 129 kb/s
Width : 720 pixels
Height : 400 pixels
Display aspect ratio : 16:9
Frame rate : 25.000 FPS
Scan type : Progressive
Bits/(Pixel*Frame) : 0.296
Stream size : 1.32 GiB (91%)

Audio
ID : 1
Format : AC-3
Format/Info : Audio Coding 3
Mode extension : CM (complete main)
Format settings, Endianness : Big
Codec ID : 2000
Duration : 1 h 28 min
Bit rate mode : Constant
Bit rate : 192 kb/s
Channel(s) : 2 channels
Channel positions : Front: L R
Sampling rate : 44.1 kHz
Frame rate : 28.711 FPS (1536 spf)
Bit depth : 16 bits
Compression mode : Lossy
Stream size : 122 MiB (8%)
Alignment : Aligned on interleaves
Interleave, duration : 35 ms (0.87 video frame)
Скриншоты:
piratbit.pw



Скачать Сказка о добре и вре... через торрент http://i2.imageban.ru/out/2016/09/29/7f3965d5a8ae69b19c322a3b8e1a1c14.jpg Скачать фильм Сказка о добре и вре... через торрент бесплантно в хорошем качестве Описание: Трое современных ребят попадают в сказку, чтобы с помощью молодильных яблок вернуть молодость своей бабушке. Дети оказываются в ... 5 10 1
Торрент: Зарегистрирован [2016-09-29 14:27] · скачан: 17 раз
Статус: √ проверено
Размер: 1.44 GB
Как cкачать? Как скачать Сказка о добре и вре... через торрент | qTorrent

28-11-2019 20:33  

Отключить всю рекламу на сайте

    Дорогой пользователь! Огромная просьба, поблагодарите релизера, оцените раздачу и оставьте свои комментарий, если Вы скачали Сказка о добре и вре... через торрент бесплатно! Внесите свою лепту в развитие PiratBit!
    Комментировать посты могут только пользователи прошедшие не сложную регистрацию
    Показать сообщения:    

    Сказка о добре и вре... через торрент
    Скачать бесплатно Сказка о добре и вре...
    Сказка о добре и вре... скачать торрент
    Сказка о добре и вре... смотреть онлайн
    Cкачать фильм Сказка о добре и вре... бесплатно
    Сказка о добре и вре... скачать торрент в хорошем качестве
    Сказка о добре и вре... смотреть онлайн бесплатно в хорошем качестве


    Вы не можете начинать темы
    Вы не можете отвечать на сообщения
    Вы не можете редактировать свои сообщения
    Вы не можете удалять свои сообщения
    Вы не можете голосовать в опросах
    Вы не можете прикреплять файлы к сообщениям
    Вы можете скачивать файлы