Marvel's Avengers Deluxe Edition (супер цена) 159р. Внимание количество ограничено!!!

2 сезон

iTunes

iTunes

1

iTunes

iTunes

iTunes

WEBRip

iTunes

30
pack

Новость дня

ВАЖНО

!!Акция!!

Alien_RageХит недели

RePack

Horizon Zero Dawn

ИГРА 18+

pack

RePack

jed

!!Акция!!

Alien_Rage

RePack

fifa19

RePack

Assassins Creed: Odyssey

RePack

NEED FOR SPEED™ PAYBACK

4 сезон

9 сезон

Бесстыжие 9 сезон

Все сериалы

все сериалы на PB.wtf

RePack

FAR CRY 5
  

Кортик (Михаил Швейцер , Владимир Венгеров ) [1954, приключения, DVDRip-AVC] piratbit.pw

Кортик через торрент piratbit.pw

Размер: 1.46 GB | Добавлен: 3 года 11 мес. назад | Торрент скачан:26 раз
Скачать  

29-09-2016 06:42 Кортик Скачать торрент  

Кортик

Год выпуска: 1954
Страна: СССР
Жанр: приключения
Продолжительность: 01:23:08
Перевод: Не требуется [Русский]
Субтитры: русский
Режиссер: Михаил Швейцер , Владимир Венгеров
В ролях: Сергей Филиппов (Филин), Герман Хованов (Свиридов), Нина Крачковская (Валя Иванова), Бруно Фрейндлих (Никитский), Аркадий Толбузин (комиссар Полевой), Борис Аракелов (Генка), Наталья Рашевская (Теретьева Мария Гавриловна), Володя Шахмаметьев (Миша Поляков), Константин Адашевский (филателист), Игорь Каспаров (Слава), Валерий Себекин (Вовка Баранов «Бяшка»), Виктор Бриц (Миша Коровин «Беспризорник»)
Описание:
Петроград, 1922 год. Несколько юных пионеров оказываются в центре детективной истории. Им удается выследить опасного преступника, в руках которого - ключ к разгадке тайны старинного морского кортика...

Качество: DVDRip-AVC
Формат: MKV
Видео: AVC, 696@759х572, 2117 kbps, 25 fps, 0,213 bpp
Аудио: русский / AC3 / 5 / 48 kHz / 384 kbps /
Навигация по главам: есть

General
Unique ID Кортик.1954.mkv
Format : Matroska
Format version : Version 2
File size : 1.46 GiB
Duration : 1 h 23 min
Overall bit rate : 2 514 kb/s
Encoded date : UTC 2016-02-29 11:45:05
Writing application : mkvmerge v5.8.0 ('No Sleep / Pillow') built on Sep 2 2012 15:37:04
Writing library : libebml v1.2.3 + libmatroska v1.3.0
Comment : DVDRip-AVC
Encoded by : george$t®
Originally released : February 28th 2016

Video
ID : 1
Format : AVC
Format/Info : Advanced Video Codec
Format profile : High@L4.1
Format settings, CABAC : Yes
Format settings, ReFrames : 16 frames
Codec ID : V_MPEG4/ISO/AVC
Duration : 1 h 23 min
Bit rate : 2 117 kb/s
Width : 696 pixels
Height : 572 pixels
Display aspect ratio : 4:3
Frame rate mode : Constant
Frame rate : 25.000 FPS
Color space : YUV
Chroma subsampling : 4:2:0
Bit depth : 8 bits
Scan type : Progressive
Bits/(Pixel*Frame) : 0.213
Stream size : 1.21 GiB (83%)
Title : Кортик.1954
Writing library : x264 core 148 r2638kMod 7599210
Encoding settings : cabac=1 / ref=16 / deblock=1:-2:0 / analyse=0x3:0x133 / me=umh / subme=11 / psy=1 / fade_compensate=0.00 / psy_rd=0.90:0.15 / mixed_ref=1 / me_range=48 / chroma_me=1 / trellis=2 / 8x8dct=1 / cqm=0 / deadzone=21,11 / fast_pskip=0 / chroma_qp_offset=-3 / threads=12 / lookahead_threads=2 / sliced_threads=0 / nr=0 / decimate=0 / interlaced=0 / bluray_compat=0 / constrained_intra=0 / fgo=0 / bframes=7 / b_pyramid=2 / b_adapt=2 / b_bias=0 / direct=3 / weightb=1 / open_gop=0 / weightp=2 / keyint=250 / keyint_min=25 / scenecut=40 / intra_refresh=0 / rc_lookahead=40 / rc=2pass / mbtree=0 / bitrate=2117 / ratetol=1.0 / qcomp=0.65 / qpmin=0 / qpmax=69 / qpstep=4 / cplxblur=20.0 / qblur=0.5 / vbv_maxrate=50000 / vbv_bufsize=62500 / nal_hrd=none / filler=0 / ip_ratio=1.40 / pb_ratio=1.30 / aq=2:0.60
Language : Russian
Default : Yes
Forced : No
Color range : Limited
Color primaries : BT.601 PAL
Transfer characteristics : BT.470 System B, BT.470 System G
Matrix coefficients : BT.601

Audio
ID : 2
Format : AC-3
Format/Info : Audio Coding 3
Mode extension : CM (complete main)
Format settings, Endianness : Big
Codec ID : A_AC3
Duration : 1 h 23 min
Bit rate mode : Constant
Bit rate : 384 kb/s
Channel(s) : 5 channels
Channel positions : Front: L C R, Side: L R
Sampling rate : 48.0 kHz
Frame rate : 31.250 FPS (1536 spf)
Compression mode : Lossy
Stream size : 228 MiB (15%)
Title : Оригинал: AC-3; 16 bit 48 Khz; 5.0ch 384 Kbps; CBR
Language : Russian
Default : Yes
Forced : No

Text
ID : 3
Format : UTF-8
Codec ID : S_TEXT/UTF8
Codec ID/Info : UTF-8 Plain Text
Title : Субтитры русские
Language : Russian
Default : No
Forced : No

Menu
00:00:00.000 : ru:Глава 1
00:01:26.840 : ru:Глава 2
00:09:10.040 : ru:Глава 3
00:15:11.120 : ru:Глава 4
00:21:07.080 : ru:Глава 5
00:28:16.960 : ru:Глава 6
00:36:55.520 : ru:Глава 7
00:42:19.200 : ru:Глава 8
00:50:42.000 : ru:Глава 9
00:59:55.680 : ru:Глава 10
01:11:08.760 : ru:Глава 11
01:17:50.840 : ru:Глава 12
Скриншоты:
piratbit.pw



Скачать Кортик через торрент http://i5.imageban.ru/out/2016/09/29/9a2261a35db06e52746184bc04b2c585.jpg Скачать фильм Кортик через торрент бесплантно в хорошем качестве Описание: Петроград, 1922 год. Несколько юных пионеров оказываются в центре детективной истории. Им удается выследить опасного преступника, ... 10 10 1
Торрент: Зарегистрирован [2016-09-29 06:42] · скачан: 26 раз
Статус: √ проверено
Размер: 1.46 GB
Как cкачать? Как скачать Кортик через торрент | qTorrent

% Раздел Тема Автор DL S | L
Детские отечественные фильмы [ 2.18 GB ] Кортик / 3 серии из 3 [1974 история DVDRip-AVC] bober100 Скачать
1 | 0
Детские отечественные фильмы [ 3.3 GB ] Кортик [1973 история DVDRip Оригинал] кэп Скачать
1 | 0
Милитария [ 20 MB ] Ядловский А.Н - Холодное оружие Третьего Рейха. Кортики кинжалы штык-ножи клейма [2007 DjVu] lexaBESpaniki Скачать
1 | 0

28-11-2019 20:33  

Отключить всю рекламу на сайте

29-09-2016 10:52 Кортик Скачать торрент  

Зачем же они пересняли в 1974, в цвет что ли?piratbit.pw



    Дорогой пользователь! Огромная просьба, поблагодарите релизера, оцените раздачу и оставьте свои комментарий, если Вы скачали Кортик через торрент бесплатно! Внесите свою лепту в развитие PiratBit!
    Комментировать посты могут только пользователи прошедшие не сложную регистрацию
    Показать сообщения:    

    Кортик через торрент
    Скачать бесплатно Кортик
    Кортик скачать торрент
    Кортик смотреть онлайн
    Cкачать фильм Кортик бесплатно
    Кортик скачать торрент в хорошем качестве
    Кортик смотреть онлайн бесплатно в хорошем качестве


    Вы не можете начинать темы
    Вы не можете отвечать на сообщения
    Вы не можете редактировать свои сообщения
    Вы не можете удалять свои сообщения
    Вы не можете голосовать в опросах
    Вы не можете прикреплять файлы к сообщениям
    Вы можете скачивать файлы