Ссылка на приватное зеркало нашего сайта всего за 1$. Внимание количество ограничено!!!

2 сезон

iTunes

iTunes

1

iTunes

iTunes

iTunes

WEBRip

iTunes

30
pack

Вам бонус

ВАЖНО

!!Акция!!

Alien_RageХит недели

RePack

Horizon Zero Dawn

ИГРА 18+

pack

RePack

jed

!!Акция!!

Alien_Rage

RePack

fifa19

RePack

Assassins Creed: Odyssey

RePack

NEED FOR SPEED™ PAYBACK

4 сезон

9 сезон

Бесстыжие 9 сезон

Все сериалы

все сериалы на PB.wtf

RePack

FAR CRY 5
  

Завтра, третьего апреля ... (Игорь Масленников ) [1969, драма, DVDRip-AVC] piratbit.pw

Завтра, третьего апреля ... через торрент piratbit.pw

Размер: 1.24 GB | Добавлен: 3 года 11 мес. назад | Торрент скачан:21 раз
Скачать  

28-09-2016 20:31 Завтра, третьего апреля ... Скачать торрент  

Завтра, третьего апреля ...

Год выпуска: 1969
Страна: СССР
Жанр: драма

Продолжительность: 01:11:27
Перевод: Не требуется [Русский]
Режиссер: Игорь Масленников
В ролях: Энекен Аксель (Ариадна Николаевна), Людмила Волынская (Людмила Петровна), Виктор Ильичев (Станислав Петрович), Павел Луспекаев (завхоз Ферапонтов), Александр Демьяненко (милиционер), Вячеслав Горошенков (Вовка Ряшенцев), Алексей Кожевников (папа Маши Гавриковой), Лариса Малеванная (мама Маши Гавриковой), Евгений Малянцев (Фонарев Юра), Владимир Пирожков (Колян), Константин Райкин (старшеклассник-лоботряс), Наталья Данилова (Маша Гаврикова)
Описание:
1-ое апреля - всем известный день розыгрышей и вранья. И вот ученики одной из ленинградских школ решили устроить «День правды» - и уточнили дату - 2-е апреля. А что у них из этого вышло...

Качество: DVDRip-AVC
Формат: MKV
Видео: AVC, 702@748x366, 2186 kbps, 25 fps, 0,340 bpp
Аудио: русский / AC3 / 2.0 / 48 kHz / 256 kbps /

General
Unique ID
Complete name Завтра, третьего апреля.1969.mkv
Format : Matroska
Format version : Version 2
File size : 1.24 GiB
Duration : 1 h 11 min
Overall bit rate : 2 492 kb/s
Encoded date : UTC 2016-04-27 19:39:11
Writing application : mkvmerge v5.8.0 ('No Sleep / Pillow') built on Sep 2 2012 15:37:04
Writing library : libebml v1.2.3 + libmatroska v1.3.0
Comment : DVDRip-AVC
Encoded by : george$t®
Originally released : April 27th 2016

Video
ID : 1
Format : AVC
Format/Info : Advanced Video Codec
Format profile : High@L4.1
Format settings, CABAC : Yes
Format settings, ReFrames : 16 frames
Codec ID : V_MPEG4/ISO/AVC
Duration : 1 h 11 min
Bit rate : 2 186 kb/s
Width : 702 pixels
Height : 366 pixels
Display aspect ratio : 2.044
Original display aspect ratio : 2.046
Frame rate mode : Constant
Frame rate : 25.000 FPS
Color space : YUV
Chroma subsampling : 4:2:0
Bit depth : 8 bits
Scan type : Progressive
Bits/(Pixel*Frame) : 0.340
Stream size : 1.09 GiB (88%)
Title : Завтра, третьего апреля.1969
Writing library : x264 core 148 r2638kMod 7599210
Encoding settings : cabac=1 / ref=16 / deblock=1:-2:0 / analyse=0x3:0x133 / me=umh / subme=11 / psy=1 / fade_compensate=0.00 / psy_rd=1.00:0.10 / mixed_ref=1 / me_range=32 / chroma_me=1 / trellis=2 / 8x8dct=1 / cqm=0 / deadzone=21,11 / fast_pskip=1 / chroma_qp_offset=-3 / threads=11 / lookahead_threads=2 / sliced_threads=0 / nr=0 / decimate=0 / interlaced=0 / bluray_compat=0 / constrained_intra=0 / fgo=0 / bframes=11 / b_pyramid=2 / b_adapt=2 / b_bias=0 / direct=3 / weightb=1 / open_gop=0 / weightp=2 / keyint=250 / keyint_min=25 / scenecut=40 / intra_refresh=0 / rc_lookahead=40 / rc=crf / mbtree=0 / crf=18.0000 / qcomp=0.65 / qpmin=0 / qpmax=69 / qpstep=4 / vbv_maxrate=50000 / vbv_bufsize=62500 / crf_max=0.0 / nal_hrd=none / filler=0 / ip_ratio=1.35 / pb_ratio=1.25 / aq=3:0.70
Language : Russian
Default : Yes
Forced : No
Color range : Limited
Color primaries : BT.601 PAL
Transfer characteristics : BT.470 System B, BT.470 System G
Matrix coefficients : BT.601

Audio
ID : 2
Format : AC-3
Format/Info : Audio Coding 3
Mode extension : CM (complete main)
Format settings, Endianness : Big
Codec ID : A_AC3
Duration : 1 h 11 min
Bit rate mode : Constant
Bit rate : 256 kb/s
Channel(s) : 2 channels
Channel positions : Front: L R
Sampling rate : 48.0 kHz
Frame rate : 31.250 FPS (1536 spf)
Compression mode : Lossy
Stream size : 131 MiB (10%)
Title : Оригинал: AC-3; 16 bits 48 Khz; 2.0ch 256 Kbps; CBR
Language : Russian
Default : Yes
Forced : No
Скриншоты:
piratbit.pw



Скачать Завтра, третьего апреля ... через торрент http://i2.imageban.ru/out/2016/09/28/80444859ddf21ff958c5a0aa5a3a59b3.jpg Скачать фильм Завтра, третьего апреля ... через торрент бесплантно в хорошем качестве Описание: 1-ое апреля - всем известный день розыгрышей и вранья. И вот ученики одной из ленинградских школ решили устроить «День правды» - ... 10 10 3
Торрент: Зарегистрирован [2016-09-28 20:31] · скачан: 21 раз
Статус: √ проверено
Размер: 1.24 GB
Как cкачать? Как скачать Завтра, третьего апреля ... через торрент | qTorrent

28-11-2019 20:33  

Отключить всю рекламу на сайте

    Дорогой пользователь! Огромная просьба, поблагодарите релизера, оцените раздачу и оставьте свои комментарий, если Вы скачали Завтра, третьего апреля ... через торрент бесплатно! Внесите свою лепту в развитие PiratBit!
    Комментировать посты могут только пользователи прошедшие не сложную регистрацию
    Показать сообщения:    

    Завтра, третьего апреля ... через торрент
    Скачать бесплатно Завтра, третьего апреля ...
    Завтра, третьего апреля ... скачать торрент
    Завтра, третьего апреля ... смотреть онлайн
    Cкачать фильм Завтра, третьего апреля ... бесплатно
    Завтра, третьего апреля ... скачать торрент в хорошем качестве
    Завтра, третьего апреля ... смотреть онлайн бесплатно в хорошем качестве


    Вы не можете начинать темы
    Вы не можете отвечать на сообщения
    Вы не можете редактировать свои сообщения
    Вы не можете удалять свои сообщения
    Вы не можете голосовать в опросах
    Вы не можете прикреплять файлы к сообщениям
    Вы можете скачивать файлы