Marvel's Avengers Deluxe Edition (супер цена) 159р. Внимание количество ограничено!!!

2 сезон

iTunes

iTunes

1

iTunes

iTunes

iTunes

WEBRip

iTunes

30
pack

Новость дня

ВАЖНО

!!Акция!!

Alien_RageХит недели

RePack

Horizon Zero Dawn

ИГРА 18+

pack

RePack

jed

!!Акция!!

Alien_Rage

RePack

fifa19

RePack

Assassins Creed: Odyssey

RePack

NEED FOR SPEED™ PAYBACK

4 сезон

9 сезон

Бесстыжие 9 сезон

Все сериалы

все сериалы на PB.wtf

RePack

FAR CRY 5
  

В тридевятом царстве... (Евгений Шерстобитов ) [1970, детский, комедия, семейный, DVDRip-AVC] piratbit.pw

В тридевятом царстве... через торрент piratbit.pw

Размер: 1.45 GB | Добавлен: 3 года 11 мес. назад | Торрент скачан:3 раза
Скачать  

28-09-2016 20:17 В тридевятом царстве... Скачать торрент  

В тридевятом царстве...

Год выпуска: 1970
Страна: СССР
Жанр: детский, комедия, семейный
Продолжительность: 01:20:49
Перевод: Не требуется [Русский]
Субтитры: русский
Режиссер: Евгений Шерстобитов
В ролях: Наталья Давыдова, Григорий Максимов, Тамара Носова (Марго), Сергей Сибель (Поль), Сергей Мартинсон, Ирина Мурзаева (первая фрейлина), Анатолий Папанов (собачий магнат), Николай Гаврилов, Спартак Мишулин, Дмитрий Капка, Лев Перфилов, Валентин Грудинин
Описание:
Во время гастролей детского ансамбля балета на льду в королевстве Карликий юная солистка Оксана по ошибке была принята за королеву, на которую была похожа как две капли воды. Оказавшись во дворце и увидев свою двойняшку, она поняла, что надо брать управление королевством в свои руки...

Качество: DVDRip-AVC
Формат: MKV
Видео: AVC, 696@742x574, 2380 kbps, 25 fps, 0,238 bpp
Аудио: русский / AC3 / 2.0 / 48 kHz / 192 kbps /
Навигация по главам: есть

General
Unique ID
Complete name В тридевятом царстве.1970\В тридевятом царстве.1970.mkv
Format : Matroska
Format version : Version 2
File size : 1.45 GiB
Duration : 1 h 20 min
Overall bit rate : 2 574 kb/s
Encoded date : UTC 2016-05-03 12:22:37
Writing application : mkvmerge v5.8.0 ('No Sleep / Pillow') built on Sep 2 2012 15:37:04
Writing library : libebml v1.2.3 + libmatroska v1.3.0
Comment : DVDRip-AVC
Encoded by : george$t®
Originally released : May 2nd 2016

Video
ID : 1
Format : AVC
Format/Info : Advanced Video Codec
Format profile : High@L4.1
Format settings, CABAC : Yes
Format settings, ReFrames : 16 frames
Codec ID : V_MPEG4/ISO/AVC
Duration : 1 h 20 min
Bit rate : 2 380 kb/s
Width : 696 pixels
Height : 574 pixels
Display aspect ratio : 1.293
Frame rate mode : Constant
Frame rate : 25.000 FPS
Color space : YUV
Chroma subsampling : 4:2:0
Bit depth : 8 bits
Scan type : Progressive
Bits/(Pixel*Frame) : 0.238
Stream size : 1.32 GiB (91%)
Title : В тридевятом царстве.1970
Writing library : x264 core 148 r2638kMod 7599210
Encoding settings : cabac=1 / ref=16 / deblock=1:-1:-1 / analyse=0x3:0x133 / me=umh / subme=11 / psy=1 / fade_compensate=0.00 / psy_rd=0.95:0.20 / mixed_ref=1 / me_range=32 / chroma_me=1 / trellis=2 / 8x8dct=1 / cqm=0 / deadzone=21,11 / fast_pskip=0 / chroma_qp_offset=-3 / threads=12 / lookahead_threads=2 / sliced_threads=0 / nr=0 / decimate=0 / interlaced=0 / bluray_compat=0 / constrained_intra=0 / fgo=0 / bframes=8 / b_pyramid=2 / b_adapt=2 / b_bias=0 / direct=3 / weightb=1 / open_gop=0 / weightp=2 / keyint=250 / keyint_min=25 / scenecut=40 / intra_refresh=0 / rc_lookahead=40 / rc=2pass / mbtree=0 / bitrate=2380 / ratetol=1.0 / qcomp=0.65 / qpmin=0 / qpmax=69 / qpstep=4 / cplxblur=20.0 / qblur=0.5 / vbv_maxrate=50000 / vbv_bufsize=62500 / nal_hrd=none / filler=0 / ip_ratio=1.30 / pb_ratio=1.30 / aq=2:0.70
Language : Russian
Default : Yes
Forced : No
Color range : Limited
Color primaries : BT.601 PAL
Transfer characteristics : BT.470 System B, BT.470 System G
Matrix coefficients : BT.601

Audio
ID : 2
Format : AC-3
Format/Info : Audio Coding 3
Mode extension : CM (complete main)
Format settings, Endianness : Big
Codec ID : A_AC3
Duration : 1 h 20 min
Bit rate mode : Constant
Bit rate : 192 kb/s
Channel(s) : 2 channels
Channel positions : Front: L R
Sampling rate : 48.0 kHz
Frame rate : 31.250 FPS (1536 spf)
Compression mode : Lossy
Stream size : 111 MiB (7%)
Title : Оригинал: AC-3; 16 bit 48 Khz; 2.0ch 192 Kbps; CBR
Language : Russian
Default : Yes
Forced : No

Text
ID : 3
Format : UTF-8
Codec ID : S_TEXT/UTF8
Codec ID/Info : UTF-8 Plain Text
Title : Субтитры русские
Language : Russian
Default : No
Forced : No

Menu
00:00:00.000 : ru:Глава 1
00:05:04.200 : ru:Глава 2
00:09:59.280 : ru:Глава 3
00:16:42.640 : ru:Глава 4
00:28:35.800 : ru:Глава 5
00:37:44.120 : ru:Глава 6
00:54:17.480 : ru:Глава 7
01:10:13.120 : ru:Глава 8
Скриншоты:
piratbit.pw



Скачать В тридевятом царстве... через торрент http://i3.imageban.ru/out/2016/09/28/9e6f30535b76174e4880d6368f1d73e8.jpg Скачать фильм В тридевятом царстве... через торрент бесплантно в хорошем качестве Описание: Во время гастролей детского ансамбля балета на льду в королевстве Карликий юная солистка Оксана по ошибке была принята за ... 10 10 2
Торрент: Зарегистрирован [2016-09-28 20:17] · скачан: 3 раз
Статус: √ проверено
Размер: 1.45 GB
Как cкачать? Как скачать В тридевятом царстве... через торрент | qTorrent

% Раздел Тема Автор DL S | L
Наши мультфильмы [ 94 MB ] Вовка в тридевятом царстве [1965 Мультфильм DVDRip] serg68rus Скачать
1 | 0

28-11-2019 20:33  

Отключить всю рекламу на сайте

    Дорогой пользователь! Огромная просьба, поблагодарите релизера, оцените раздачу и оставьте свои комментарий, если Вы скачали В тридевятом царстве... через торрент бесплатно! Внесите свою лепту в развитие PiratBit!
    Комментировать посты могут только пользователи прошедшие не сложную регистрацию
    Показать сообщения:    

    В тридевятом царстве... через торрент
    Скачать бесплатно В тридевятом царстве...
    В тридевятом царстве... скачать торрент
    В тридевятом царстве... смотреть онлайн
    Cкачать фильм В тридевятом царстве... бесплатно
    В тридевятом царстве... скачать торрент в хорошем качестве
    В тридевятом царстве... смотреть онлайн бесплатно в хорошем качестве


    Вы не можете начинать темы
    Вы не можете отвечать на сообщения
    Вы не можете редактировать свои сообщения
    Вы не можете удалять свои сообщения
    Вы не можете голосовать в опросах
    Вы не можете прикреплять файлы к сообщениям
    Вы можете скачивать файлы