Ссылка на приватное зеркало нашего сайта всего за 1$. Внимание количество ограничено!!!

2 сезон

iTunes

iTunes

1

iTunes

iTunes

iTunes

WEBRip

iTunes

30
pack

Вам бонус

ВАЖНО

!!Акция!!

Alien_RageХит недели

RePack

Horizon Zero Dawn

ИГРА 18+

pack

RePack

jed

!!Акция!!

Alien_Rage

RePack

fifa19

RePack

Assassins Creed: Odyssey

RePack

NEED FOR SPEED™ PAYBACK

4 сезон

9 сезон

Бесстыжие 9 сезон

Все сериалы

все сериалы на PB.wtf

RePack

FAR CRY 5
  

Юнга со шхуны «Колумб» (Евгений Шерстобитов ) [1963, детский, приключения, DVDRip-AVC] piratbit.pw

Юнга со шхуны «Колумб» через торрент piratbit.pw

Размер: 1.45 GB | Добавлен: 3 года 11 мес. назад | Торрент скачан:7 раз
Скачать  

28-09-2016 14:37 Юнга со шхуны «Колумб» Скачать торрент  

Юнга со шхуны «Колумб»

Год выпуска: 1963
Страна: СССР
Жанр: детский, приключения
Продолжительность: 01:11:57
Перевод: Не требуется [Русский]
Режиссер: Евгений Шерстобитов
В ролях: Алексей Бунин, София Карамаш, Владимир Кисленко, Виктор Мирошниченко (Левко), Ирина Мицик, Олег Мокшанцев, Алиция Омельчук, Алексей Омельчук, Иван Рыжов, Александр Толстых, Дмитрий Франько (Ковальчук), Валентин Черняк
Описание:
Подростки Марко и Лида, напав на след диверсанта, вовлекаются в гущу событий, связанных с поимкой шпиона. Благодаря ребятам, диверсанты, пытающиеся на захваченной шхуне «Колумб» уйти в открытое море, задерживаются пограничниками.

Качество: DVDRip-AVC
Формат: MKV
Видео: AVC, 696@742x390, 2500 kbps, 25 fps, 0,368 bpp
Аудио: русский / AC3 / 2.0 / 48 kHz / 384 kbps /

General
Unique ID
Complete name Юнга со шхуны Колумб.1963.mkv
Format : Matroska
Format version : Version 2
File size : 1.45 GiB
Duration : 1 h 11 min
Overall bit rate : 2 886 kb/s
Encoded date : UTC 2016-05-21 09:27:22
Writing application : mkvmerge v5.8.0 ('No Sleep / Pillow') built on Sep 2 2012 15:37:04
Writing library : libebml v1.2.3 + libmatroska v1.3.0
Comment : DVDRip-AVC
Encoded by : george$t®
Originally released : May 20th 2016

Video
ID : 1
Format : AVC
Format/Info : Advanced Video Codec
Format profile : High@L4.1
Format settings, CABAC : Yes
Format settings, ReFrames : 16 frames
Codec ID : V_MPEG4/ISO/AVC
Duration : 1 h 11 min
Bit rate : 2 500 kb/s
Width : 696 pixels
Height : 390 pixels
Display aspect ratio : 1.903
Original display aspect ratio : 1.904
Frame rate mode : Constant
Frame rate : 25.000 FPS
Color space : YUV
Chroma subsampling : 4:2:0
Bit depth : 8 bits
Scan type : Progressive
Bits/(Pixel*Frame) : 0.368
Stream size : 1.23 GiB (85%)
Title : Юнга со шхуны Колумб.1963
Writing library : x264 core 148 r2692kMod 64f4e24
Encoding settings : cabac=1 / ref=16 / deblock=1:-2:0 / analyse=0x3:0x133 / me=umh / subme=11 / psy=1 / fade_compensate=0.00 / psy_rd=0.95:0.15 / mixed_ref=1 / me_range=32 / chroma_me=1 / trellis=2 / 8x8dct=1 / cqm=0 / deadzone=21,11 / fast_pskip=0 / chroma_qp_offset=-3 / threads=12 / lookahead_threads=2 / sliced_threads=0 / nr=0 / decimate=0 / interlaced=0 / bluray_compat=0 / constrained_intra=0 / fgo=0 / bframes=8 / b_pyramid=2 / b_adapt=2 / b_bias=0 / direct=3 / weightb=1 / open_gop=0 / weightp=2 / keyint=250 / keyint_min=25 / scenecut=40 / intra_refresh=0 / rc_lookahead=40 / rc=2pass / mbtree=0 / bitrate=2500 / ratetol=1.0 / qcomp=0.60 / qpmin=0 / qpmax=69 / qpstep=4 / cplxblur=20.0 / qblur=0.5 / vbv_maxrate=50000 / vbv_bufsize=62500 / nal_hrd=none / filler=0 / ip_ratio=1.30 / pb_ratio=1.30 / aq=3:0.70
Language : Russian
Default : Yes
Forced : No
Color range : Limited
Color primaries : BT.601 PAL
Transfer characteristics : BT.470 System B, BT.470 System G
Matrix coefficients : BT.601

Audio
ID : 2
Format : AC-3
Format/Info : Audio Coding 3
Mode extension : CM (complete main)
Format settings, Endianness : Big
Codec ID : A_AC3
Duration : 1 h 11 min
Bit rate mode : Constant
Bit rate : 384 kb/s
Channel(s) : 2 channels
Channel positions : Front: L R
Sampling rate : 48.0 kHz
Frame rate : 31.250 FPS (1536 spf)
Compression mode : Lossy
Stream size : 198 MiB (13%)
Title : Оригинал: AC-3; 16 bit 48 Khz; 2.0ch 384 Kbps; CBR
Language : Russian
Default : Yes
Forced : No
Скриншоты:
piratbit.pw



Скачать Юнга со шхуны «Колумб» через торрент http://i4.imageban.ru/out/2016/09/28/6496150756d562d603363d52eb397ad4.jpg Скачать фильм Юнга со шхуны «Колумб» через торрент бесплантно в хорошем качестве Описание: Подростки Марко и Лида, напав на след диверсанта, вовлекаются в гущу событий, связанных с поимкой шпиона. Благодаря ребятам, ... 10 10 2
Info! Золотая раздача, скачанное не засчитывается.
Торрент: Зарегистрирован [2016-09-28 14:37] · скачан: 7 раз
Статус: √ проверено
Размер: 1.45 GB
Как cкачать? Как скачать Юнга со шхуны «Колумб» через торрент | qTorrent

% Раздел Тема Автор DL S | L
Детские отечественные фильмы [ 744 MB ] Юнга со шхуны «Колумб» [1963 СССР детский DVDRip от AVP Studio] AVP Studio Скачать
2 | 1
Детские отечественные фильмы [ 744 MB ] Юнга со шхуны «Колумб» [1963 СССР детский DVDRip-AVC от AVP Studio] AVP Studio Скачать
1 | 0

28-11-2019 20:33  

Отключить всю рекламу на сайте

    Дорогой пользователь! Огромная просьба, поблагодарите релизера, оцените раздачу и оставьте свои комментарий, если Вы скачали Юнга со шхуны «Колумб» через торрент бесплатно! Внесите свою лепту в развитие PiratBit!
    Комментировать посты могут только пользователи прошедшие не сложную регистрацию
    Показать сообщения:    

    Юнга со шхуны «Колумб» через торрент
    Скачать бесплатно Юнга со шхуны «Колумб»
    Юнга со шхуны «Колумб» скачать торрент
    Юнга со шхуны «Колумб» смотреть онлайн
    Cкачать фильм Юнга со шхуны «Колумб» бесплатно
    Юнга со шхуны «Колумб» скачать торрент в хорошем качестве
    Юнга со шхуны «Колумб» смотреть онлайн бесплатно в хорошем качестве


    Вы не можете начинать темы
    Вы не можете отвечать на сообщения
    Вы не можете редактировать свои сообщения
    Вы не можете удалять свои сообщения
    Вы не можете голосовать в опросах
    Вы не можете прикреплять файлы к сообщениям
    Вы можете скачивать файлы