Marvel's Avengers Deluxe Edition (супер цена) 159р. Внимание количество ограничено!!!

2 сезон

iTunes

iTunes

1

iTunes

iTunes

iTunes

WEBRip

iTunes

30
pack

Новость дня

ВАЖНО

!!Акция!!

Alien_RageХит недели

RePack

Horizon Zero Dawn

ИГРА 18+

pack

RePack

jed

!!Акция!!

Alien_Rage

RePack

fifa19

RePack

Assassins Creed: Odyssey

RePack

NEED FOR SPEED™ PAYBACK

4 сезон

9 сезон

Бесстыжие 9 сезон

Все сериалы

все сериалы на PB.wtf

RePack

FAR CRY 5
  

Иностранка (Александр Серый , Константин Жук) [1965, комедия, семейный, DVDRip-AVC] piratbit.pw

Иностранка через торрент piratbit.pw

Размер: 1.45 GB | Добавлен: 3 года 11 мес. назад | Торрент скачан:17 раз
Скачать  

28-09-2016 04:36 Иностранка Скачать торрент  

Иностранка

Год выпуска: 1965
Страна: СССР
Жанр: комедия, семейный

Продолжительность: 01:09:14
Перевод: Не требуется [Русский]
Режиссер: Александр Серый , Константин Жук
В ролях: Людмила Шабанова (Мадлен), Азер Курбанов (принц Джафар), Игорь Крюков (Алеша), Юрий Бондаренко (Толя), Валентина Соколова (Лена), Сергей Филиппов (Абдулла), Юрий Прокопович (Брекс), Рина Зеленая (мадам Юбер), Евгений Весник (профессор), Илья Рутберг (проводник), Роман Хомятов (лейтенант полиции), Евгений Котов (Михаил Иванович)
Описание:
В Одессу, в наивной надежде получить компенсацию за принадлежащий ей до революции дом, приезжает мадам Жубер с внучкой Мадлен. Предприимчивые одесситы не хотят упустить возможность получить и свою выгоду...

Качество: DVDRip-AVC
Формат: MKV
Видео: AVC, 696@759x572, 2743 kbps, 25 fps, 0,276 bpp
Аудио: русский / AC3 / 2.0 / 48 kHz / 256 kbps /

General
Unique ID Иностранка.1965.mkv
Format : Matroska
Format version : Version 2
File size : 1.45 GiB
Duration : 1 h 9 min
Overall bit rate : 3 001 kb/s
Encoded date : UTC 2016-05-23 18:35:39
Writing application : mkvmerge v5.8.0 ('No Sleep / Pillow') built on Sep 2 2012 15:37:04
Writing library : libebml v1.2.3 + libmatroska v1.3.0
Comment : DVDRip-AVC
Encoded by : george$t®
Originally released : May 23rd 2016

Video
ID : 1
Format : AVC
Format/Info : Advanced Video Codec
Format profile : High@L4.1
Format settings, CABAC : Yes
Format settings, ReFrames : 16 frames
Codec ID : V_MPEG4/ISO/AVC
Duration : 1 h 9 min
Bit rate : 2 743 kb/s
Width : 696 pixels
Height : 572 pixels
Display aspect ratio : 4:3
Frame rate mode : Constant
Frame rate : 25.000 FPS
Color space : YUV
Chroma subsampling : 4:2:0
Bit depth : 8 bits
Scan type : Progressive
Bits/(Pixel*Frame) : 0.276
Stream size : 1.30 GiB (89%)
Title : Иностранка.1965
Writing library : x264 core 148 r2692kMod 64f4e24
Encoding settings : cabac=1 / ref=16 / deblock=1:0:0 / analyse=0x3:0x133 / me=umh / subme=11 / psy=1 / fade_compensate=0.00 / psy_rd=0.90:0.10 / mixed_ref=1 / me_range=32 / chroma_me=1 / trellis=2 / 8x8dct=1 / cqm=0 / deadzone=21,11 / fast_pskip=0 / chroma_qp_offset=-3 / threads=12 / lookahead_threads=2 / sliced_threads=0 / nr=0 / decimate=0 / interlaced=0 / bluray_compat=0 / constrained_intra=0 / fgo=0 / bframes=7 / b_pyramid=2 / b_adapt=2 / b_bias=0 / direct=3 / weightb=1 / open_gop=0 / weightp=2 / keyint=250 / keyint_min=25 / scenecut=40 / intra_refresh=0 / rc_lookahead=40 / rc=2pass / mbtree=0 / bitrate=2743 / ratetol=1.0 / qcomp=0.65 / qpmin=0 / qpmax=69 / qpstep=4 / cplxblur=20.0 / qblur=0.5 / vbv_maxrate=50000 / vbv_bufsize=62500 / nal_hrd=none / filler=0 / ip_ratio=1.32 / pb_ratio=1.30 / aq=1:0.90
Language : Russian
Default : Yes
Forced : No
Color range : Limited
Color primaries : BT.601 PAL
Transfer characteristics : BT.470 System B, BT.470 System G
Matrix coefficients : BT.601

Audio
ID : 2
Format : AC-3
Format/Info : Audio Coding 3
Mode extension : CM (complete main)
Format settings, Endianness : Big
Codec ID : A_AC3
Duration : 1 h 9 min
Bit rate mode : Constant
Bit rate : 256 kb/s
Channel(s) : 2 channels
Channel positions : Front: L R
Sampling rate : 48.0 kHz
Frame rate : 31.250 FPS (1536 spf)
Compression mode : Lossy
Stream size : 127 MiB (9%)
Title : Оригинал: AC-3; 16 bit 48 Khz; 2.0ch 256 Kbps; CBR
Language : Russian
Default : Yes
Forced : No
Скриншоты:
piratbit.pw



Скачать Иностранка через торрент http://i2.imageban.ru/out/2016/09/28/98346ec6883ff1fb054d1aebafbf789a.jpg Скачать фильм Иностранка через торрент бесплантно в хорошем качестве Описание: В Одессу, в наивной надежде получить компенсацию за принадлежащий ей до революции дом, приезжает мадам Жубер с внучкой Мадлен. ... 10 10 1
Info! Золотая раздача, скачанное не засчитывается.
Торрент: Зарегистрирован [2016-09-28 04:36] · скачан: 17 раз
Статус: √ проверено
Размер: 1.45 GB
Как cкачать? Как скачать Иностранка через торрент | qTorrent

% Раздел Тема Автор DL S | L
Гонзо [ 1.36 GB ] Молодые Проститутки: Иностранки По Обмену / Young Harlots: Foreign Exchange [2010 All sex Oral Anal Legal Teen Foreign DVDRip Оригинал] sheker187 Скачать
1 | 0
Гонзо [ 2.32 GB ] Трахающиеся иностранки №2. Секс От Первого Лица / Fuckin Foreigners 2 POV [2006 Gonzo POV Anal Euro Beauties Stockings Straight. DVDRip] Pir@tya2010 Скачать
1 | 0
Гонзо [ 1.91 GB ] Young Harlots Foreign Exchange / Молодые Проститутки: Иностранка По Обмену [2010 Gonzo Anal DP Creampies DVDRip] Shmel Скачать
1 | 0
Порно фильмы с сюжетом [ 1.22 GB ] Les Petites Etrangeres / Foreign Girls In Heat / Похотливые иностранки [2007Euro Feature International VODRip] Shmel Скачать
1 | 0

28-11-2019 20:33  

Отключить всю рекламу на сайте

    Дорогой пользователь! Огромная просьба, поблагодарите релизера, оцените раздачу и оставьте свои комментарий, если Вы скачали Иностранка через торрент бесплатно! Внесите свою лепту в развитие PiratBit!
    Комментировать посты могут только пользователи прошедшие не сложную регистрацию
    Показать сообщения:    

    Иностранка через торрент
    Скачать бесплатно Иностранка
    Иностранка скачать торрент
    Иностранка смотреть онлайн
    Cкачать фильм Иностранка бесплатно
    Иностранка скачать торрент в хорошем качестве
    Иностранка смотреть онлайн бесплатно в хорошем качестве


    Вы не можете начинать темы
    Вы не можете отвечать на сообщения
    Вы не можете редактировать свои сообщения
    Вы не можете удалять свои сообщения
    Вы не можете голосовать в опросах
    Вы не можете прикреплять файлы к сообщениям
    Вы можете скачивать файлы