Marvel's Avengers Deluxe Edition (супер цена) 159р. Внимание количество ограничено!!!

2 сезон

iTunes

iTunes

1

iTunes

iTunes

iTunes

WEBRip

iTunes

30
pack

Новость дня

ВАЖНО

!!Акция!!

Alien_RageХит недели

RePack

Horizon Zero Dawn

ИГРА 18+

pack

RePack

jed

!!Акция!!

Alien_Rage

RePack

fifa19

RePack

Assassins Creed: Odyssey

RePack

NEED FOR SPEED™ PAYBACK

4 сезон

9 сезон

Бесстыжие 9 сезон

Все сериалы

все сериалы на PB.wtf

RePack

FAR CRY 5
  

Судьба барабанщика (Виктор Эйсымонт) [1955, драма, приключения, DVDRip-AVC] piratbit.pw

Судьба барабанщика через торрент piratbit.pw

Размер: 2.04 GB | Добавлен: 3 года 11 мес. назад | Торрент скачан:13 раз
Скачать  

27-09-2016 17:16 Судьба барабанщика Скачать торрент  

Судьба барабанщика

Год выпуска: 1955
Страна: СССР
Жанр: драма, приключения
Продолжительность: 01:25:03
Перевод: Не требуется [Русский]
Режиссер: Виктор Эйсымонт
В ролях: Даниил Сагал (инженер Баташов Пётр Александрович, отец Серёжи), Сергей Ясинский (Сережа Баташов), Алла Ларионова (Валентина, мачеха Серёжи), Андрей Абрикосов (Николай Половцев, комдив, директор оборонного завода №724), Виктор Хохряков (дядя Вася), Клавдия Половикова (старуха, завхоз киевского детсада №14), Александр Лебедев (Юрка Ковякин), Василий Краснощеков («Крючконосый» вор-наводчик), Леонид Пирогов (старик Яков), Николай Тимофеев (Грачковский, инженер), Борис Бурляев (Славка Грачковский), Георгий Милляр (Николя, дворник детсада, сын старухи)
Описание:
В жизнь Сережи Баташова, юного барабанщика пионерской организации, приходит беда. Его отца, инженера секретного завода, арестовывают за утерю документов. Виновная в этом мачеха выходит замуж и оставляет Сережу одного.
Пользуясь доверчивостью предоставленного самому себе мальчика в квартире Баташовых обосновалась уголовно-шпионская организация. Представившись дальними родственниками мальчика они используют его в своих целях, заставляя знакомить их с сослуживцами его отца. Сережа не сразу разобрался в «добрых» людях…

Качество: DVDRip-AVC
Формат: MKV
Видео: AVC, 716@762x572, 3173 kbps, 25 fps, 0,310 bpp
Аудио: русский / AC3 / 2.0 / 48 kHz / 192 kbps /

General
Unique ID Судьба барабанщика.1955.mkv
Format : Matroska
Format version : Version 2
File size : 2.04 GiB
Duration : 1 h 25 min
Overall bit rate : 3 434 kb/s
Encoded date : UTC 2016-05-27 15:12:49
Writing application : mkvmerge v5.8.0 ('No Sleep / Pillow') built on Sep 2 2012 15:37:04
Writing library : libebml v1.2.3 + libmatroska v1.3.0
Comment : DVDRip-AVC
Encoded by : george$t®
Originally released : May 27th 2016

Video
ID : 1
Format : AVC
Format/Info : Advanced Video Codec
Format profile : High@L4.1
Format settings, CABAC : Yes
Format settings, ReFrames : 16 frames
Codec ID : V_MPEG4/ISO/AVC
Duration : 1 h 25 min
Bit rate : 3 174 kb/s
Width : 716 pixels
Height : 572 pixels
Display aspect ratio : 4:3
Original display aspect ratio : 4:3
Frame rate mode : Constant
Frame rate : 25.000 FPS
Color space : YUV
Chroma subsampling : 4:2:0
Bit depth : 8 bits
Scan type : Progressive
Bits/(Pixel*Frame) : 0.310
Stream size : 1.89 GiB (92%)
Title : Судьба барабанщика.1955
Writing library : x264 core 148 r2692kMod 64f4e24
Encoding settings : cabac=1 / ref=16 / deblock=1:-2:0 / analyse=0x3:0x133 / me=umh / subme=11 / psy=1 / fade_compensate=0.00 / psy_rd=0.90:0.20 / mixed_ref=1 / me_range=32 / chroma_me=1 / trellis=2 / 8x8dct=1 / cqm=0 / deadzone=21,11 / fast_pskip=1 / chroma_qp_offset=-3 / threads=12 / lookahead_threads=2 / sliced_threads=0 / nr=0 / decimate=1 / interlaced=0 / bluray_compat=0 / constrained_intra=0 / fgo=0 / bframes=9 / b_pyramid=2 / b_adapt=2 / b_bias=0 / direct=3 / weightb=1 / open_gop=0 / weightp=2 / keyint=250 / keyint_min=25 / scenecut=40 / intra_refresh=0 / rc_lookahead=40 / rc=crf / mbtree=0 / crf=18.3000 / qcomp=0.65 / qpmin=0 / qpmax=69 / qpstep=4 / vbv_maxrate=50000 / vbv_bufsize=62500 / crf_max=0.0 / nal_hrd=none / filler=0 / ip_ratio=1.40 / pb_ratio=1.30 / aq=2:0.70
Language : Russian
Default : Yes
Forced : No
Color range : Limited
Color primaries : BT.601 PAL
Transfer characteristics : BT.470 System B, BT.470 System G
Matrix coefficients : BT.601

Audio
ID : 2
Format : AC-3
Format/Info : Audio Coding 3
Mode extension : CM (complete main)
Format settings, Endianness : Big
Codec ID : A_AC3
Duration : 1 h 25 min
Bit rate mode : Constant
Bit rate : 192 kb/s
Channel(s) : 2 channels
Channel positions : Front: L R
Sampling rate : 48.0 kHz
Frame rate : 31.250 FPS (1536 spf)
Compression mode : Lossy
Stream size : 117 MiB (6%)
Title : Оригинал: AC-3; 16 bit 48 Khz; 2.0ch 192 Kbps; CBR
Language : Russian
Default : Yes
Forced : No
Скриншоты:
piratbit.pw



Скачать Судьба барабанщика через торрент http://i4.imageban.ru/out/2016/09/27/b73fdfd6285be484dfcbdc8eb13c287d.jpg Скачать фильм Судьба барабанщика через торрент бесплантно в хорошем качестве Описание: В жизнь Сережи Баташова, юного барабанщика пионерской организации, приходит беда. Его отца, инженера секретного завода, ... 10 10 2
Торрент: Зарегистрирован [2016-09-27 17:16] · скачан: 13 раз
Статус: √ проверено
Размер: 2.04 GB
Как cкачать? Как скачать Судьба барабанщика через торрент | qTorrent

% Раздел Тема Автор DL S | L
Наши сериалы [ 2.91 GB ] Судьба барабанщика 1-3 из 3 [1976 СССР детский SATRip-AVC от AVP Studio] AVP Studio Скачать
1 | 0
Наши сериалы [ 1.46 GB ] Судьба барабанщика 1-3 из 3 [1976 СССР детский SATRip от AVP Studio] AVP Studio Скачать
1 | 0
Наши сериалы [ 2.84 GB ] Судьба барабанщика 1-3 из 3 [1976 СССР детский SATRip от AVP Studio] AVP Studio Скачать
1 | 0

28-11-2019 20:33  

Отключить всю рекламу на сайте

27-09-2016 21:49 Судьба барабанщика Скачать торрент  

спасибо!"фильм из детства!!piratbit.pw



    Дорогой пользователь! Огромная просьба, поблагодарите релизера, оцените раздачу и оставьте свои комментарий, если Вы скачали Судьба барабанщика через торрент бесплатно! Внесите свою лепту в развитие PiratBit!
    Комментировать посты могут только пользователи прошедшие не сложную регистрацию
    Показать сообщения:    

    Судьба барабанщика через торрент
    Скачать бесплатно Судьба барабанщика
    Судьба барабанщика скачать торрент
    Судьба барабанщика смотреть онлайн
    Cкачать фильм Судьба барабанщика бесплатно
    Судьба барабанщика скачать торрент в хорошем качестве
    Судьба барабанщика смотреть онлайн бесплатно в хорошем качестве


    Вы не можете начинать темы
    Вы не можете отвечать на сообщения
    Вы не можете редактировать свои сообщения
    Вы не можете удалять свои сообщения
    Вы не можете голосовать в опросах
    Вы не можете прикреплять файлы к сообщениям
    Вы можете скачивать файлы