Marvel's Avengers Deluxe Edition (супер цена) 159р. Внимание количество ограничено!!!

2 сезон

iTunes

iTunes

1

iTunes

iTunes

iTunes

WEBRip

iTunes

30
pack

Новость дня

ВАЖНО

!!Акция!!

Alien_RageХит недели

RePack

Horizon Zero Dawn

ИГРА 18+

pack

RePack

jed

!!Акция!!

Alien_Rage

RePack

fifa19

RePack

Assassins Creed: Odyssey

RePack

NEED FOR SPEED™ PAYBACK

4 сезон

9 сезон

Бесстыжие 9 сезон

Все сериалы

все сериалы на PB.wtf

RePack

FAR CRY 5
  

Карантин (Илья Фрэз) [1983, комедия, приключения, семейный, DVDRip] piratbit.pw

Карантин через торрент piratbit.pw

Размер: 1.36 GB | Добавлен: 3 года 11 мес. назад | Торрент скачан:37 раз
Скачать  

27-09-2016 04:44 Карантин Скачать торрент  

Карантин

Год выпуска: 1983
Страна: СССР
Жанр: комедия, приключения, семейный

Продолжительность: 01:16:19
Перевод: Не требуется [Русский]
Режиссер: Илья Фрэз
В ролях: Айлика Кремер (Маша), Евгения Симонова (мама), Юрий Дуванов (папа), Светлана Немоляева (бабушка), Юрий Богатырев (дедушка), Татьяна Пельтцер (прабабушка), Павел Кадочников (прадедушка), Лидия Федосеева-Шукшина (странная тетя), Елена Соловей (портниха), Нина Архипова (тетя Полина), Любовь Соколова (тетя Катя), Владимир Антоник (Аспидов)
Описание:
Когда в детском саду, который посещает Машенька, объявили карантин, оказалось, что девочку не у кого оставить - все заняты неотложными делами, прабабушка и прадедушка тоже работают. Поэтому Маша будет жить у родственников, друзей, коллег и случайных знакомых, а заодно, быть может, узнает много интересного и увлекательного.

Качество: DVDRip
Формат: AVI
Видео: XviD, 656x496 (4:3), 2358 kbps, 25 fps, 0,290 bpp
Аудио: AC3 / 2.0 / 48 kHz / 192 kbps /

General
Complete name Карантин.1983.dvdrip_[1.37]_[teko].avi
Format : AVI
Format/Info : Audio Video Interleave
File size : 1.36 GiB
Duration : 1 h 16 min
Overall bit rate : 2 560 kb/s
Writing application : VirtualDubMod 1.5.10.3 | www.virtualdub-fr.org || (build 2550/release)
Writing library : VirtualDubMod build 2550/release

Video
ID : 0
Format : MPEG-4 Visual
Format profile : Advanced Simple@L5
Format settings, BVOP : 1
Format settings, QPel : No
Format settings, GMC : No warppoints
Format settings, Matrix : Custom
Codec ID : XVID
Codec ID/Hint : XviD
Duration : 1 h 16 min
Bit rate : 2 359 kb/s
Width : 656 pixels
Height : 496 pixels
Display aspect ratio : 4:3
Frame rate : 25.000 FPS
Color space : YUV
Chroma subsampling : 4:2:0
Bit depth : 8 bits
Scan type : Progressive
Compression mode : Lossy
Bits/(Pixel*Frame) : 0.290
Stream size : 1.26 GiB (92%)
Writing library : XviD 73

Audio
ID : 1
Format : AC-3
Format/Info : Audio Coding 3
Mode extension : CM (complete main)
Format settings, Endianness : Big
Codec ID : 2000
Duration : 1 h 16 min
Bit rate mode : Constant
Bit rate : 192 kb/s
Channel(s) : 2 channels
Channel positions : Front: L R
Sampling rate : 48.0 kHz
Frame rate : 31.250 FPS (1536 spf)
Compression mode : Lossy
Stream size : 105 MiB (7%)
Alignment : Split accross interleaves
Interleave, duration : 40 ms (1.00 video frame)
Interleave, preload duration : 500 ms
Скриншоты:
piratbit.pw



Скачать Карантин через торрент http://i2.imageban.ru/out/2016/09/27/52771c52d1254f02045931f603509005.jpg Скачать фильм Карантин через торрент бесплантно в хорошем качестве Описание: Когда в детском саду, который посещает Машенька, объявили карантин, оказалось, что девочку не у кого оставить - все заняты ... 10 10 2
Торрент: Зарегистрирован [2016-09-27 04:44] · скачан: 37 раз
Статус: √ проверено
Размер: 1.36 GB
Как cкачать? Как скачать Карантин через торрент | qTorrent

% Раздел Тема Автор DL S | L
Наши сериалы [ 6.34 GB ] Нагиев на карантине / Сезон: 2 / Серии: 1-10 из 10 [2020 WEB-DL 1080p ] bober100 Скачать
3 | 0
Наши сериалы [ 3.9 GB ] Нагиев на карантине / Сезон: 2 / Серии: 1-10 из 10 [2020 WEB-DL 720p ] bober100 Скачать
6 | 0
Наши сериалы [ 2.16 GB ] Нагиев на карантине / Сезон: 1 / Серии: 1-10 из 10 [2020 WEB-DLRip-AVC ] bober100 Скачать
1 | 0
Наши сериалы [ 2.17 GB ] Нагиев на карантине / Сезон: 1 / Серии: 1-10 из 10 [2020 WEB-DLRip ] bober100 Скачать
2 | 0
Наши сериалы [ 6.25 GB ] Нагиев на карантине / Сезон: 1 / Серии: 1-10 из 10 [2020 WEB-DL 1080p ] bober100 Скачать
4 | 1
Наши сериалы [ 3.84 GB ] Нагиев на карантине / Сезон: 1 / Серии: 1-10 из 10 [2020 WEB-DL 720p ] bober100 Скачать
5 | 0
Наши сериалы [ 350 MB ] Психологини на карантине / Сезон: 1 / Серии: 1- из ??? [2020 WEB-DL 1080p] bober100 Скачать
2 | 0

28-11-2019 20:33  

Отключить всю рекламу на сайте

    Дорогой пользователь! Огромная просьба, поблагодарите релизера, оцените раздачу и оставьте свои комментарий, если Вы скачали Карантин через торрент бесплатно! Внесите свою лепту в развитие PiratBit!
    Комментировать посты могут только пользователи прошедшие не сложную регистрацию
    Показать сообщения:    

    Карантин через торрент
    Скачать бесплатно Карантин
    Карантин скачать торрент
    Карантин смотреть онлайн
    Cкачать фильм Карантин бесплатно
    Карантин скачать торрент в хорошем качестве
    Карантин смотреть онлайн бесплатно в хорошем качестве


    Вы не можете начинать темы
    Вы не можете отвечать на сообщения
    Вы не можете редактировать свои сообщения
    Вы не можете удалять свои сообщения
    Вы не можете голосовать в опросах
    Вы не можете прикреплять файлы к сообщениям
    Вы можете скачивать файлы