Marvel's Avengers Deluxe Edition (супер цена) 159р. Внимание количество ограничено!!!

2 сезон

iTunes

iTunes

1

iTunes

iTunes

iTunes

WEBRip

iTunes

30
pack

Новость дня

ВАЖНО

!!Акция!!

Alien_RageХит недели

RePack

Horizon Zero Dawn

ИГРА 18+

pack

RePack

jed

!!Акция!!

Alien_Rage

RePack

fifa19

RePack

Assassins Creed: Odyssey

RePack

NEED FOR SPEED™ PAYBACK

4 сезон

9 сезон

Бесстыжие 9 сезон

Все сериалы

все сериалы на PB.wtf

RePack

FAR CRY 5
  

Когда я стану великаном (Инна Туманян ) [1979, Мелодрама, семейный, детский, DVDRip] piratbit.pw

Когда я стану великаном через торрент piratbit.pw

Размер: 1.45 GB | Добавлен: 3 года 11 мес. назад | Торрент скачан:55 раз
Скачать  

26-09-2016 18:55 Когда я стану великаном Скачать торрент  

Когда я стану великаном

Год выпуска: 1979
Страна: СССР
Жанр: Мелодрама, семейный, детский

Продолжительность: 01:23:03
Перевод: Не требуется [Русский]
Режиссер: Инна Туманян
В ролях: Михаил Ефремов (Копейкин), Лия Ахеджакова (Джульетта Ашотовна), Наталья Сеземан (Горошкина), Алексей Дмитриев (Коля Кристаллов), Андрей Васильев (Федя Ласточкин), Инна Ульянова (Эльвира Павловна), Марина Шиманская (Лидия Николаевна), Олег Ефремов (представитель ГорОНО Сергей Константинович), Владимир Качан (таксист), Арсен Багратуни (Пайкин)
Описание:
Герой фильма школьник Петя Копейкин доказывает, что такие понятия как храбрость, благородство и честь присущи не только временам плаща и шпаги, но и сегодняшнему дню. Выбрав примером для подражания героя известной пьесы Эдмона Ростана, он в своих поступках старается походить на Сирано де Бержерака.

Качество: DVDRip
Формат: AVI
Видео: XviD, 688x336 (2.048), 2238 kbps, 25 fps, 0,387 bpp
Аудио: AC3 / 2.0 / 48 kHz / 256 kbps /

General
Complete name Kogda ya stanu velikanom (1979) DVDRip.avi
Format : AVI
Format/Info : Audio Video Interleave
File size : 1.45 GiB
Duration : 1 h 23 min
Overall bit rate : 2 504 kb/s
Movie name : Kogda ya stanu velikanom (1979) DVDRip
Director : Maksmet
Writing application : VirtualDubModRus 1.5.10.2 (build 2542/release)
Original source form/Name : Movie
Copyright : http://torrents.net.ua/
Comment : 03.08.2016

Video
ID : 0
Format : MPEG-4 Visual
Format profile : Advanced Simple@L5
Format settings, BVOP : 1
Format settings, QPel : No
Format settings, GMC : No warppoints
Format settings, Matrix : Custom
Codec ID : XVID
Codec ID/Hint : XviD
Duration : 1 h 23 min
Bit rate : 2 238 kb/s
Width : 688 pixels
Height : 336 pixels
Display aspect ratio : 2.048
Frame rate : 25.000 FPS
Color space : YUV
Chroma subsampling : 4:2:0
Bit depth : 8 bits
Scan type : Progressive
Compression mode : Lossy
Bits/(Pixel*Frame) : 0.387
Stream size : 1.30 GiB (89%)
Writing library : XviD 1.2.1 (UTC 2008-12-04)

Audio
ID : 1
Format : AC-3
Format/Info : Audio Coding 3
Mode extension : CM (complete main)
Format settings, Endianness : Big
Codec ID : 2000
Duration : 1 h 23 min
Bit rate mode : Constant
Bit rate : 256 kb/s
Channel(s) : 2 channels
Channel positions : Front: L R
Sampling rate : 48.0 kHz
Frame rate : 31.250 FPS (1536 spf)
Compression mode : Lossy
Stream size : 152 MiB (10%)
Alignment : Split accross interleaves
Interleave, duration : 40 ms (1.00 video frame)
Interleave, preload duration : 500 ms
Скриншоты:
piratbit.pw



Скачать Когда я стану великаном через торрент http://i3.imageban.ru/out/2016/09/26/761976a89d8f63300a7ea25527898c0f.jpg Скачать фильм Когда я стану великаном через торрент бесплантно в хорошем качестве Описание: Герой фильма школьник Петя Копейкин доказывает, что такие понятия как храбрость, благородство и честь присущи не только временам ... 10 10 1
Торрент: Зарегистрирован [2016-09-26 18:55] · скачан: 55 раз
Статус: √ проверено
Размер: 1.45 GB
Как cкачать? Как скачать Когда я стану великаном через торрент | qTorrent

28-11-2019 20:33  

Отключить всю рекламу на сайте

    Дорогой пользователь! Огромная просьба, поблагодарите релизера, оцените раздачу и оставьте свои комментарий, если Вы скачали Когда я стану великаном через торрент бесплатно! Внесите свою лепту в развитие PiratBit!
    Комментировать посты могут только пользователи прошедшие не сложную регистрацию
    Показать сообщения:    

    Когда я стану великаном через торрент
    Скачать бесплатно Когда я стану великаном
    Когда я стану великаном скачать торрент
    Когда я стану великаном смотреть онлайн
    Cкачать фильм Когда я стану великаном бесплатно
    Когда я стану великаном скачать торрент в хорошем качестве
    Когда я стану великаном смотреть онлайн бесплатно в хорошем качестве


    Вы не можете начинать темы
    Вы не можете отвечать на сообщения
    Вы не можете редактировать свои сообщения
    Вы не можете удалять свои сообщения
    Вы не можете голосовать в опросах
    Вы не можете прикреплять файлы к сообщениям
    Вы можете скачивать файлы