Marvel's Avengers Deluxe Edition (супер цена) 159р. Внимание количество ограничено!!!

2 сезон

iTunes

iTunes

1

iTunes

iTunes

iTunes

WEBRip

iTunes

30
pack

Новость дня

ВАЖНО

!!Акция!!

Alien_RageХит недели

RePack

Horizon Zero Dawn

ИГРА 18+

pack

RePack

jed

!!Акция!!

Alien_Rage

RePack

fifa19

RePack

Assassins Creed: Odyssey

RePack

NEED FOR SPEED™ PAYBACK

4 сезон

9 сезон

Бесстыжие 9 сезон

Все сериалы

все сериалы на PB.wtf

RePack

FAR CRY 5
  

Последняя ночь Шахерезады (Тахир Сабиров ) [1987, фэнтези, семейный, DVDRip-AVC] piratbit.pw

Последняя ночь Шахерезады через торрент piratbit.pw

Размер: 1.45 GB | Добавлен: 3 года 11 мес. назад | Торрент скачан:52 раза
Скачать  

26-09-2016 18:39 Последняя ночь Шахерезады Скачать торрент  

Последняя ночь Шахерезады

Год выпуска: 1987
Страна: СССР
Жанр: фэнтези, семейный
Продолжительность: 01:23:45
Перевод: Не требуется [Русский]
Режиссер: Тахир Сабиров
В ролях: Улугбек Музаффаров, Тамара Яндиева, Гада Алгама, Абдул-Салам Алтаев, Мажар Альхаким, Геннадий Четвериков, Хайсам Балани, Иван Гаврилюк, Елена Тонунц, Тахир Сабиров, З. Хушвахтова, Юлиан Бакаев
Описание:
Дальнейшие приключения башмачника Маруфа, джинов, появляющихся из бутылки, и мудрых калифов, и коварных визирей, и кровожадных разбойников, и волшебные ковры - самолеты.

Качество: DVDRip-AVC
Формат: MKV
Видео: AVC, 688@750x572, 2255 kbps, 25 fps, 0,229 bpp
Аудио: русский / AC3 / 2.0 / 48 kHz / 224 kbps /

General
Unique ID Последняя ночь Шахерезады.1987.mkv
Format : Matroska
Format version : Version 2
File size : 1.45 GiB
Duration : 1 h 23 min
Overall bit rate : 2 481 kb/s
Encoded date : UTC 2016-09-13 17:27:45
Writing application : mkvmerge v5.8.0 ('No Sleep / Pillow') built on Sep 2 2012 15:37:04
Writing library : libebml v1.2.3 + libmatroska v1.3.0
Comment : DVDRip-AVC
Encoded by : george$t®
Originally released : September 13th 2016

Video
ID : 1
Format : AVC
Format/Info : Advanced Video Codec
Format profile : High@L4.1
Format settings, CABAC : Yes
Format settings, ReFrames : 16 frames
Codec ID : V_MPEG4/ISO/AVC
Duration : 1 h 23 min
Bit rate : 2 255 kb/s
Width : 688 pixels
Height : 572 pixels
Display aspect ratio : 4:3
Original display aspect ratio : 4:3
Frame rate mode : Constant
Frame rate : 25.000 FPS
Color space : YUV
Chroma subsampling : 4:2:0
Bit depth : 8 bits
Scan type : Progressive
Bits/(Pixel*Frame) : 0.229
Stream size : 1.29 GiB (89%)
Title : Последняя ночь Шахерезады.1987.mkv
Writing library : x264 core 148 r2705kMod 3f5ed56
Encoding settings : cabac=1 / ref=16 / deblock=1:-1:-1 / analyse=0x3:0x133 / me=umh / subme=10 / psy=1 / fade_compensate=0.00 / psy_rd=1.00:0.15 / mixed_ref=1 / me_range=32 / chroma_me=1 / trellis=2 / 8x8dct=1 / cqm=0 / deadzone=21,11 / fast_pskip=0 / chroma_qp_offset=-3 / threads=12 / lookahead_threads=2 / sliced_threads=0 / nr=0 / decimate=0 / interlaced=0 / bluray_compat=0 / constrained_intra=0 / fgo=0 / bframes=8 / b_pyramid=2 / b_adapt=2 / b_bias=0 / direct=3 / weightb=1 / open_gop=0 / weightp=2 / keyint=250 / keyint_min=25 / scenecut=40 / intra_refresh=0 / rc_lookahead=60 / rc=2pass / mbtree=0 / bitrate=2255 / ratetol=1.0 / qcomp=0.60 / qpmin=0 / qpmax=69 / qpstep=4 / cplxblur=20.0 / qblur=0.5 / vbv_maxrate=50000 / vbv_bufsize=62500 / nal_hrd=none / filler=0 / ip_ratio=1.28 / pb_ratio=1.30 / aq=1:0.90
Language : Russian
Default : Yes
Forced : No
Color range : Limited
Color primaries : BT.601 PAL
Transfer characteristics : BT.470 System B, BT.470 System G
Matrix coefficients : BT.601

Audio
ID : 2
Format : AC-3
Format/Info : Audio Coding 3
Mode extension : CM (complete main)
Format settings, Endianness : Big
Codec ID : A_AC3
Duration : 1 h 23 min
Bit rate mode : Constant
Bit rate : 224 kb/s
Channel(s) : 2 channels
Channel positions : Front: L R
Sampling rate : 48.0 kHz
Frame rate : 31.250 FPS (1536 spf)
Compression mode : Lossy
Stream size : 134 MiB (9%)
Title : Оригинал: AC-3; 16 bits 48 Khz; 2.0ch 224 Kbps; CBR.
Language : Russian
Default : Yes
Forced : No
Скриншоты:
piratbit.pw



Скачать Последняя ночь Шахерезады через торрент http://i3.imageban.ru/out/2016/09/26/752a734fd23236104373d45a4cdae007.jpg Скачать фильм Последняя ночь Шахерезады через торрент бесплантно в хорошем качестве Описание: Дальнейшие приключения башмачника Маруфа, джинов, появляющихся из бутылки, и мудрых калифов, и коварных визирей, и кровожадных ... 10 10 3
Торрент: Зарегистрирован [2016-09-26 18:39] · скачан: 52 раз
Статус: √ проверено
Размер: 1.45 GB
Как cкачать? Как скачать Последняя ночь Шахерезады через торрент | qTorrent

28-11-2019 20:33  

Отключить всю рекламу на сайте

    Дорогой пользователь! Огромная просьба, поблагодарите релизера, оцените раздачу и оставьте свои комментарий, если Вы скачали Последняя ночь Шахерезады через торрент бесплатно! Внесите свою лепту в развитие PiratBit!
    Комментировать посты могут только пользователи прошедшие не сложную регистрацию
    Показать сообщения:    

    Последняя ночь Шахерезады через торрент
    Скачать бесплатно Последняя ночь Шахерезады
    Последняя ночь Шахерезады скачать торрент
    Последняя ночь Шахерезады смотреть онлайн
    Cкачать фильм Последняя ночь Шахерезады бесплатно
    Последняя ночь Шахерезады скачать торрент в хорошем качестве
    Последняя ночь Шахерезады смотреть онлайн бесплатно в хорошем качестве


    Вы не можете начинать темы
    Вы не можете отвечать на сообщения
    Вы не можете редактировать свои сообщения
    Вы не можете удалять свои сообщения
    Вы не можете голосовать в опросах
    Вы не можете прикреплять файлы к сообщениям
    Вы можете скачивать файлы