1 сезон

1 сезон

iTunes

1

КиноПоиск HD

Кинопоиск HD

iTunes

13

1 сезон

RePack

30

Новинка

ВАЖНО

ИГРА 18+

pack

RePack

MK11
pack

Легкие деньги

RePack

jed

RePack

fifa19

RePack

RDR2

RePack

NEED FOR SPEED™ PAYBACK

4 сезон

9 сезон

Бесстыжие 9 сезон

Все сериалы

все сериалы на PB.wtf

RePack

FAR CRY 5
  
Magnet ссылка

Большое ограбление / The Big Heist (Роберт Марковиц) [2001 г., драма, криминал, SATRip] AVO [ Андрей Дольский] piratbit.pw

Большое ограбление через торрент piratbit.pw

Размер: 1.35 GB | Добавлен: 4 года 6 мес. назад | Торрент скачан:3 раза
Скачать  

25-09-2016 19:48 Большое ограбление Скачать торрент  

Большое ограбление / The Big Heist
Год выпуска: 2001
Страна: США, Канада
Жанр: драма, криминал
Продолжительность: 01:25:59
Перевод: Авторский (одноголосый) [ Андрей Дольский]

Режиссер: Роберт Марковиц

rating

В ролях:

Дональд Сазерленд, Джон Хёрд, Джанет Киддер, Ник Сэндоу

Описание:

Произошло ограбление в международном аэропорту. Мелкому воришке Джимми Берку выпадает шанс сорвать крупный куш. Вместе со своими напарниками — мелкими воришками Джимми пытается выпутаться из сложной ситуации, выйдя сухим из воды…

Качество: SATRip
Формат: AVI
Видео кодек: XviD
Аудио кодек: AC3

Видео: 640x480 (1.33:1), 29.970 fps, XviD build 50 ~2043 kbps avg, 0.22 bit/pixel
Аудио#1: 48 kHz, AC3 Dolby Digital, 2/0 (L,R) ch, ~192 kbps
скриншот  скриншот  скриншот  скриншот  скриншот  
Общее
Полное имя : D:\Большое ограбление - The Big Heist (by ale_x2008).avi
Формат : AVI
Формат/Информация : Audio Video Interleave
Размер файла : 1,35 Гбайт
Продолжительность : 1 ч. 25 м.
Общий поток : 2247 Кбит/сек
Название фильма : Большое ограбление - The Big Heist (by ale_x2008)
Режиссёр : by ale_x2008
Программа кодирования : VirtualDubMod 1.5.10.3 (build 2550/release)
Авторское право : Edich2
Примечание : RuTracker.org

Видео
Идентификатор : 0
Формат : MPEG-4 Visual
Профиль формата : Advanced Simple@L5
Параметр BVOP формата : 2
Параметр QPel формата : Нет
Параметр GMC формата : Без точки перехода
Параметр матрицы формата : Default (H.263)
Идентификатор кодека : XVID
Идентификатор кодека/Подсказка : XviD
Продолжительность : 1 ч. 25 м.
Битрейт : 2043 Кбит/сек
Ширина : 640 пикселей
Высота : 480 пикселей
Соотношение сторон : 4:3
Частота кадров : 29,970 (29970/1000) кадров/сек
Цветовое пространство : YUV
Субдискретизация насыщенности : 4:2:0
Битовая глубина : 8 бит
Тип развёртки : Прогрессивная
Метод сжатия : С потерями
Бит/(Пиксели*Кадры) : 0.222
Размер потока : 1,23 Гбайт (91%)
Библиотека кодирования : XviD 1.2.1 (UTC 2008-12-04)

Аудио
Идентификатор : 1
Формат : AC-3
Формат/Информация : Audio Coding 3
Расширение режима : CM (complete main)
Параметр Endianness формата : Big
Идентификатор кодека : 2000
Продолжительность : 1 ч. 25 м.
Вид битрейта : Постоянный
Битрейт : 192 Кбит/сек
Каналы : 2 канала
Расположение каналов : Front: L R
Частота : 48,0 КГц
Частота кадров : 31,250 кадров/сек (1536 spf)
Метод сжатия : С потерями
Размер потока : 118 Мбайт (9%)
Выравнивание : Разделение по промежуткам
Продолжительность промежутка : 33 мс. (1,00 видеокадр)
Время предзагрузки промежутка : 500 мс.
piratbit.pw



Скачать Большое ограбление через торрент https://pic1.kartinco.top/images/10/bza8p.jpg Скачать фильм Большое ограбление через торрент бесплантно в хорошем качестве Описание: Произошло ограбление в международном аэропорту. Мелкому воришке Джимми Берку выпадает шанс сорвать крупный куш. Вместе со своими ... 10 10 4
Торрент: Зарегистрирован [2016-09-25 19:48] · скачан: 3 раз
Статус: √ проверено
Размер: 1.35 GB
Как cкачать? Как скачать Большое ограбление через торрент | UTorrent

28-11-2019 20:33  

Отключить всю рекламу на сайте

26-09-2016 04:58 Большое ограбление Скачать торрент  

Всем приятного просмотра) piratbit.pw



    Дорогой пользователь! Огромная просьба, поблагодарите релизера, оцените раздачу и оставьте свои комментарий, если Вы скачали Большое ограбление через торрент бесплатно! Внесите свою лепту в развитие PiratBit!
    Комментировать посты могут только пользователи прошедшие не сложную регистрацию
    Показать сообщения:    

    Большое ограбление через торрент
    Скачать бесплатно Большое ограбление
    Большое ограбление скачать торрент
    Большое ограбление смотреть онлайн
    Cкачать фильм Большое ограбление бесплатно
    Большое ограбление скачать торрент в хорошем качестве
    Большое ограбление смотреть онлайн бесплатно в хорошем качестве


    Вы не можете начинать темы
    Вы не можете отвечать на сообщения
    Вы не можете редактировать свои сообщения
    Вы не можете удалять свои сообщения
    Вы не можете голосовать в опросах
    Вы не можете прикреплять файлы к сообщениям
    Вы можете скачивать файлы