Marvel's Avengers Deluxe Edition (супер цена) 159р. Внимание количество ограничено!!!

2 сезон

iTunes

iTunes

1

iTunes

iTunes

iTunes

WEBRip

iTunes

30
pack

Новость дня

ВАЖНО

!!Акция!!

Alien_RageХит недели

RePack

Horizon Zero Dawn

ИГРА 18+

pack

RePack

jed

!!Акция!!

Alien_Rage

RePack

fifa19

RePack

Assassins Creed: Odyssey

RePack

NEED FOR SPEED™ PAYBACK

4 сезон

9 сезон

Бесстыжие 9 сезон

Все сериалы

все сериалы на PB.wtf

RePack

FAR CRY 5
  

Ночь на кордоне (Василий Панин ) [2001, детский, драма, военный, TVRip] piratbit.pw

Ночь на кордоне через торрент piratbit.pw

Размер: 1.45 GB | Добавлен: 3 года 11 мес. назад | Торрент скачан:15 раз
Скачать  

25-09-2016 11:08 Ночь на кордоне Скачать торрент  

Ночь на кордоне

Год выпуска: 2001
Страна: Россия
Жанр: детский, драма, военный
Продолжительность: 01:38:13
Перевод: Не требуется [Русский]
Режиссер: Василий Панин
В ролях: Василий Лановой (Сергей в старости), Евгений Литвиненко (Сережа в детстве), Лариса Лужина (Дарья Петровна), Раиса Рязанова (тетя Катя), Игорь Кашинцев (друг Сергея), Геннадий Корольков (Аржанов), Владимир Конкин (Семен Степанович), Александр Пятков (Илья Медведь), Анастасия Королькова (Настя)
Описание:
Очень простая и трогательная история о том, как дед рассказывает внуку о Великой Отечественной войне, о событиях, произошедших на воронежской земле в 1942 году.

Качество: TVRip
Формат: AVI
Видео: XviD, 704x528 (4:3), 1907 kbps, 25 fps, 0,205 bpp
Аудио: AC3 / 2.0 / 48 kHz / 192 kbps /

General
Complete name Ночь на кордоне (2001) TVRip.avi
Format : AVI
Format/Info : Audio Video Interleave
File size : 1.45 GiB
Duration : 1 h 38 min
Overall bit rate : 2 109 kb/s
Writing application : VirtualDubMod 1.5.10.2 (build 2540/release)
Writing library : VirtualDub build 28292/release

Video
ID : 0
Format : MPEG-4 Visual
Format profile : Advanced Simple@L5
Format settings, BVOP : 1
Format settings, QPel : No
Format settings, GMC : No warppoints
Format settings, Matrix : Default (H.263)
Codec ID : XVID
Codec ID/Hint : XviD
Duration : 1 h 38 min
Bit rate : 1 908 kb/s
Width : 704 pixels
Height : 528 pixels
Display aspect ratio : 4:3
Frame rate : 25.000 FPS
Color space : YUV
Chroma subsampling : 4:2:0
Bit depth : 8 bits
Scan type : Progressive
Compression mode : Lossy
Bits/(Pixel*Frame) : 0.205
Stream size : 1.31 GiB (90%)
Writing library : XviD 1.2.0.dev47 (UTC 2006-11-01)

Audio
ID : 1
Format : AC-3
Format/Info : Audio Coding 3
Mode extension : CM (complete main)
Format settings, Endianness : Big
Codec ID : 2000
Duration : 1 h 38 min
Bit rate mode : Constant
Bit rate : 192 kb/s
Channel(s) : 2 channels
Channel positions : Front: L R
Sampling rate : 48.0 kHz
Frame rate : 31.250 FPS (1536 spf)
Compression mode : Lossy
Delay relative to video : 500 ms
Stream size : 135 MiB (9%)
Alignment : Split accross interleaves
Interleave, duration : 40 ms (1.00 video frame)
Interleave, preload duration : 500 ms
Скриншоты:
piratbit.pw



Скачать Ночь на кордоне через торрент http://i6.imageban.ru/out/2016/09/25/90f0b702d9c8b7493caee76d79af68bb.jpg Скачать фильм Ночь на кордоне через торрент бесплантно в хорошем качестве Описание: Очень простая и трогательная история о том, как дед рассказывает внуку о Великой Отечественной войне, о событиях, произошедших на ... 10 10 4
Info! Серебряная раздача, засчитывается только 50% скачанного.
Торрент: Зарегистрирован [2016-09-25 11:08] · скачан: 15 раз
Статус: √ проверено
Размер: 1.45 GB
Как cкачать? Как скачать Ночь на кордоне через торрент | qTorrent

28-11-2019 20:33  

Отключить всю рекламу на сайте

    Дорогой пользователь! Огромная просьба, поблагодарите релизера, оцените раздачу и оставьте свои комментарий, если Вы скачали Ночь на кордоне через торрент бесплатно! Внесите свою лепту в развитие PiratBit!
    Комментировать посты могут только пользователи прошедшие не сложную регистрацию
    Показать сообщения:    

    Ночь на кордоне через торрент
    Скачать бесплатно Ночь на кордоне
    Ночь на кордоне скачать торрент
    Ночь на кордоне смотреть онлайн
    Cкачать фильм Ночь на кордоне бесплатно
    Ночь на кордоне скачать торрент в хорошем качестве
    Ночь на кордоне смотреть онлайн бесплатно в хорошем качестве


    Вы не можете начинать темы
    Вы не можете отвечать на сообщения
    Вы не можете редактировать свои сообщения
    Вы не можете удалять свои сообщения
    Вы не можете голосовать в опросах
    Вы не можете прикреплять файлы к сообщениям
    Вы можете скачивать файлы