Ссылка на приватное зеркало всего за 1$. Внимание количество ограничено!!!

OK

1+1

iTunes

мы

OK

1

WEB-DLRip

Джокер

Пифагор

Ведьмак / The Witcher сериал

Лицензия

ПШазам

ОК

Оно 2

iTunes

30
pack

Вам бонус

ВАЖНО

!!Акция!!

Alien_RageХит недели

RePack

Resident Evil 21

ИГРА 18+

pack

RePack

jed

!!Акция!!

Alien_Rage

RePack

fifa19

RePack

Assassins Creed: Odyssey

RePack

NEED FOR SPEED™ PAYBACK

4 сезон

9 сезон

Бесстыжие 9 сезон

Все сериалы

все сериалы на PB.wtf

RePack

FAR CRY 5
  

Предмет обожания (Олег Базилов ) [2014, драма, WEB-DLRip-AVC] piratbit.pw

Предмет обожания через торрент piratbit.pw

Размер: 1021 MB | Добавлен: 3 года 3 мес. назад | Торрент скачан:40 раз
Скачать  

24-09-2016 07:08 Предмет обожания Скачать торрент  

Предмет обожания

Год выпуска: 2014
Страна: Россия, Беларусь
Жанр: драма
Продолжительность: 01:19:37
Перевод: Не требуется [Русский]
Режиссер: Олег Базилов
В ролях: Сергей Шакуров (князь Грохольский), Павел Делонг (Борис фон Дидериц), Борис Миронов (Данила Охлопков), Анна Попова (Лиза), Александр Ткаченок (Лопаткин, доктор), Антон Бельский (Григорий), Александр Парфенович (Пантелеймон), Нина Пискарёва (Зинаида Саввишна), Марта Шантар (Сашенька), Валентина Гарцуева, Тамара Муженко, Татьяна Мархель
Описание:
В имение князя Грохольского приезжает известный беллетрист Борис фон Дидериц с супругой Лизой. Молодая женщина разительно отличается от местных обитательниц красотой, природным изяществом и своей неотразимой женской силой, безотказно действующей на мужчин. Она сводит с ума и хозяина имения, и его молодого, непутевого сына Григория, и друга семьи -уездного исправника, надворного советника Данилу Охлопкова. При полном безразличии своего супруга Лиза каждому из мужчин дарит авансы, каждого манит к себе, но не делает до конца счастливым. Связанные семейными и дружескими узами любовники Лизы начинают мучительно ревновать друг к другу. Не приходит избавления от страданий и тогда, когда Лиза однажды бесследно исчезает...

Качество: WEB-DLRip-AVC
Формат: MKV
Видео: AVC, 1024x576 (16:9), 1600 kbps, 25 fps, 0,109 bpp
Аудио: AC3 / 2.0 / 44 kHz / 192 kbps /

General
Unique ID Uezdnaja.dama.2014.WEB-DLRip.AVC.by.Серый1779.Files-x.mkv
Format : Matroska
Format version : Version 2
File size : 1 021 MiB
Duration : 1 h 19 min
Overall bit rate : 1 793 kb/s
Encoded date : UTC 2016-09-23 12:20:19
Writing application : mkvmerge v6.1.0 ('Old Devil') built on Mar 4 2013 09:10:42
Writing library : libebml v1.3.0 + libmatroska v1.4.0

Video
ID : 1
Format : AVC
Format/Info : Advanced Video Codec
Format profile : High@L4.1
Format settings, CABAC : Yes
Format settings, ReFrames : 9 frames
Codec ID : V_MPEG4/ISO/AVC
Duration : 1 h 19 min
Bit rate : 1 600 kb/s
Width : 1 024 pixels
Height : 576 pixels
Display aspect ratio : 16:9
Frame rate mode : Constant
Frame rate : 25.000 FPS
Color space : YUV
Chroma subsampling : 4:2:0
Bit depth : 8 bits
Scan type : Progressive
Bits/(Pixel*Frame) : 0.109
Stream size : 892 MiB (87%)
Writing library : x264 core 130 r2273 b3065e6
Encoding settings : cabac=1 / ref=9 / deblock=1:-2:-1 / analyse=0x3:0x133 / me=umh / subme=9 / psy=1 / psy_rd=1.00:0.15 / mixed_ref=1 / me_range=32 / chroma_me=1 / trellis=2 / 8x8dct=1 / cqm=0 / deadzone=21,11 / fast_pskip=0 / chroma_qp_offset=-3 / threads=6 / lookahead_threads=1 / sliced_threads=0 / nr=0 / decimate=1 / interlaced=fake / bluray_compat=0 / constrained_intra=0 / bframes=9 / b_pyramid=2 / b_adapt=2 / b_bias=0 / direct=1 / weightb=1 / open_gop=0 / weightp=2 / keyint=250 / keyint_min=25 / scenecut=40 / intra_refresh=0 / rc=2pass / mbtree=0 / bitrate=1600 / ratetol=1.0 / qcomp=0.60 / qpmin=0 / qpmax=69 / qpstep=4 / cplxblur=20.0 / qblur=0.5 / ip_ratio=1.40 / pb_ratio=1.30 / aq=2:1.00
Default : Yes
Forced : No
Color range : Limited
Color primaries : BT.709
Transfer characteristics : BT.709
Matrix coefficients : BT.709

Audio
ID : 2
Format : AC-3
Format/Info : Audio Coding 3
Mode extension : CM (complete main)
Format settings, Endianness : Big
Codec ID : A_AC3
Duration : 1 h 19 min
Bit rate mode : Constant
Bit rate : 192 kb/s
Channel(s) : 2 channels
Channel positions : Front: L R
Sampling rate : 44.1 kHz
Frame rate : 28.711 FPS (1536 spf)
Compression mode : Lossy
Stream size : 109 MiB (11%)
Default : Yes
Forced : No
Скриншоты:
piratbit.pw



Скачать Предмет обожания через торрент http://i6.imageban.ru/out/2016/09/24/30706cce2faa0f70cafed4cab4794509.jpg Скачать фильм Предмет обожания через торрент бесплантно в хорошем качестве Описание: В имение князя Грохольского приезжает известный беллетрист Борис фон Дидериц с супругой Лизой. Молодая женщина разительно ... 10 10 3
Info! Золотая раздача, скачанное не засчитывается.
Торрент: Зарегистрирован [2016-09-24 07:08] · скачан: 40 раз
Статус: √ проверено
Размер: 1021 MB
Как cкачать? Как скачать Предмет обожания через торрент | qTorrent

28-11-2019 20:33  

Отключить всю рекламу на сайте

    Дорогой пользователь! Огромная просьба, поблагодарите релизера, оцените раздачу и оставьте свои комментарий, если Вы скачали Предмет обожания через торрент бесплатно! Внесите свою лепту в развитие PiratBit!
    Комментировать посты могут только пользователи прошедшие не сложную регистрацию
    Показать сообщения:    

    Предмет обожания через торрент
    Скачать бесплатно Предмет обожания
    Предмет обожания скачать торрент
    Предмет обожания смотреть онлайн
    Cкачать фильм Предмет обожания бесплатно
    Предмет обожания скачать торрент в хорошем качестве
    Предмет обожания смотреть онлайн бесплатно в хорошем качестве


    Вы не можете начинать темы
    Вы не можете отвечать на сообщения
    Вы не можете редактировать свои сообщения
    Вы не можете удалять свои сообщения
    Вы не можете голосовать в опросах
    Вы не можете прикреплять файлы к сообщениям
    Вы можете скачивать файлы