1 сезон

1 сезон

iTunes

1

КиноПоиск HD

Кинопоиск HD

iTunes

13

1 сезон

RePack

30

Deluxe

ВАЖНО

ИГРА 18+

pack

RePack

MK11
pack

Легкие деньги

RePack

jed

RePack

fifa19

RePack

RDR2

RePack

NEED FOR SPEED™ PAYBACK

4 сезон

9 сезон

Бесстыжие 9 сезон

Все сериалы

все сериалы на PB.wtf

RePack

FAR CRY 5
  
Magnet ссылка

Везунчик / Lucky You (Кёртис Хэнсон) [2007 г., драма, мелодрама, спорт, WEB-DLRip] MVO piratbit.pw

Везунчик через торрент piratbit.pw

Размер: 2.18 GB | Добавлен: 4 года 7 мес. назад | Торрент скачан:24 раза
Скачать  

20-09-2016 06:04 Везунчик Скачать торрент  

Везунчик / Lucky You
Год выпуска: 2007
Страна: США, Германия, Австралия
Жанр: драма, мелодрама, спорт
Продолжительность: 02:03:27
Перевод: Профессиональный (многоголосый)

Режиссер: Кёртис Хэнсон

Бюджет: $55 000 000
Премьера в мире: 1 мая 2007

rating

В ролях: Филлис Соммервиль, Эрик Бана, Орасио Санс, Дрю Бэрримор, Джои Керн, Дебра Мессинг, Делэйн Йэтс, Майкл Шеннон Дженкинс, Роберт Дювалл, Чарльз Мартин Смит, Роберт Дауни мл., Саверио Гуэрра, Дэнни Хоч, Кенни Ко, Келвин Хань Йи, Джек Янгер, Трэйси Хоу, Сонни Суровьек, Джин Смарт, Ганс Хоус, Брэдфорд Инглиш, Омар Бенсон Миллер

Описание: Действие фильма разворачивается в мире профессионального покера. Главный герой ленты — игрок Хак Чивер, который не жалеет сил для победы и не боится рисковать. В личной жизни он, напротив, ведет себя разумно и осторожно, избегая эмоциональных порывов и каких-либо обязательств. Когда же Хак берется выиграть чемпионат мира по покеру 2003 года, а заодно и очаровать молодую певицу из Бейкерсфилда Билли Оффер, он встречает на своем пути только одно препятствие — в лице своего отца, легендарного игрока в покер, бросившего мать Хака много лет назад. В итоге отец и сын становятся соперниками не только в жизни, но и за карточным столом. По мере приближения финальной схватки Хак приходит к осознанию одной простой истины: чтобы одерживать победы и в жизни, и в игре, необходимо соединить свои человеческие достоинства с талантом игрока…

Качество: WEB-DLRip
Формат: AVI
Видео кодек: XviD
Аудио кодек: AC3
Видео: XviD, 2067 Кбит/с, 720x304, 23.976 кадр/с
Аудио: AC3, 6 ch, 448 Кбит/с, 48 kHz
Релиз от: Koenig

Сравнение
Общее
Полное имя : Lucky.You.2007.WEB-DLRip.avi
Формат : AVI
Формат/Информация : Audio Video Interleave
Профиль формата : OpenDML
Размер файла : 2,18 Гбайт
Продолжительность : 2 ч. 3 м.
Общий поток : 2527 Кбит/сек
Программа кодирования : VirtualDubMod 1.5.10.2 (build 2540/release)
Библиотека кодирования : VirtualDubMod build 2540/release

Видео
Идентификатор : 0
Формат : MPEG-4 Visual
Профиль формата : Advanced Simple@L5
Параметр BVOP формата : 1
Параметр QPel формата : Нет
Параметр GMC формата : Без точки перехода
Параметр матрицы формата : Выборочная
Идентификатор кодека : XVID
Идентификатор кодека/Подсказка : XviD
Продолжительность : 2 ч. 3 м.
Битрейт : 2067 Кбит/сек
Ширина : 720 пикселей
Высота : 304 пикселя
Соотношение сторон : 2,35:1
Частота кадров : 23,976 (23976/1000) кадра/сек
Цветовое пространство : YUV
Субдискретизация насыщенности : 4:2:0
Битовая глубина : 8 бит
Тип развёртки : Прогрессивная
Метод сжатия : С потерями
Бит/(Пиксели*Кадры) : 0.394
Размер потока : 1,78 Гбайт (82%)
Библиотека кодирования : XviD 73

Аудио
Идентификатор : 1
Формат : AC-3
Формат/Информация : Audio Coding 3
Расширение режима : CM (complete main)
Параметр Endianness формата : Big
Идентификатор кодека : 2000
Продолжительность : 2 ч. 3 м.
Вид битрейта : Постоянный
Битрейт : 448 Кбит/сек
Каналы : 6 каналов
Расположение каналов : Front: L C R, Side: L R, LFE
Частота : 48,0 КГц
Частота кадров : 31,250 кадров/сек (1536 spf)
Метод сжатия : С потерями
Задержка видео : 19 мс.
Размер потока : 396 Мбайт (18%)
Выравнивание : Разделение по промежуткам
Продолжительность промежутка : 42 мс. (1,00 видеокадр)
Время предзагрузки промежутка : 500 мс.

piratbit.pw



Скачать Везунчик через торрент https://pic1.kartinco.top/images/10/lhf47.jpg Скачать фильм Везунчик через торрент бесплантно в хорошем качестве Описание: Действие фильма разворачивается в мире профессионального покера. Главный герой ленты — игрок Хак Чивер, который не жалеет сил для ... 10 10 1
Info! Золотая раздача, скачанное не засчитывается.
Торрент: Зарегистрирован [2016-09-20 06:04] · скачан: 24 раз
Статус: √ проверено
Размер: 2.18 GB
Как cкачать? Как скачать Везунчик через торрент | UTorrent

28-11-2019 20:33  

Отключить всю рекламу на сайте

    Дорогой пользователь! Огромная просьба, поблагодарите релизера, оцените раздачу и оставьте свои комментарий, если Вы скачали Везунчик через торрент бесплатно! Внесите свою лепту в развитие PiratBit!
    Комментировать посты могут только пользователи прошедшие не сложную регистрацию
    Показать сообщения:    

    Везунчик через торрент
    Скачать бесплатно Везунчик
    Везунчик скачать торрент
    Везунчик смотреть онлайн
    Cкачать фильм Везунчик бесплатно
    Везунчик скачать торрент в хорошем качестве
    Везунчик смотреть онлайн бесплатно в хорошем качестве


    Вы не можете начинать темы
    Вы не можете отвечать на сообщения
    Вы не можете редактировать свои сообщения
    Вы не можете удалять свои сообщения
    Вы не можете голосовать в опросах
    Вы не можете прикреплять файлы к сообщениям
    Вы можете скачивать файлы